&title=HAZARD
&artist=Limpid
&first=0
&des=IcrgeAopt
&lv_6=13+
&inote_6=(128){1},
{1}2bpp3>1[4:5]/6bpp7<5[4:5],
{1},
{1}1bpp3>8[4:5]/5bpp7<4[4:5],
{1},
{1}8bq2>5[4:5]/4bq6<1[4:5],
{1},
{1}8bqq5[2:1]/4bqq1[2:1],
{64}1xb,2x,3x,4x,5x,6x,7x,8x,
{48}1xb,2x,3x,4x,5x,6x,7x,8x,
{32}1xb,2x,3x,4x,5x,6x,7x,8x,
{24}1xb,2x,3x,4x,5x,6x,7x,8x,
{16}1x,2x,
{16}3xh[8:1]/4x,,4,,3h[8:1]/4,,4,,3h[8:1]/4,,4,4,3h[8:1],,4,,
{16}3xh[8:1]/5,,5,,3h[8:1]/5,,5,,3h[8:1]/5,,,5,3h[8:1]/5,,5,,
{16}6xh[8:1]/5b,,5,,6h[8:1]/5,,5,,6h[8:1]/5,,5,5,6h[8:1],,5,,
{16}6xh[8:1]/4,,4,,6h[8:1]/4,,4,,6h[8:1]/4,,,4,6h[8:1]/4,,4,,
{16}7b/4b,,6,,3,4,,4,2xb/5xb,,3,,6,5,,5,
{16}7b/4b,,6,,2,4,,4,1xb/5xb,,3,,7,5,,5,
{8}8b/4b,6,1b/5b,3,
{32}8,7,6,5,4,3,2,1,8,7,6,5,4,3,2,1,
{1}8b<5[2:1]*pp3[2:1],
{16}5xb-7>8[8:1]/1xb-3<4[8:1],,,,1/5,,,,8x/4x,,,8/4,8-6>5[8:1]/4-2<1[8:1],,1/5,,
{16}8b-2>3[8:1]/4b-6<7[8:1],,,,8x/4x,,,,4xh[16:1],8xh[16:1],4xh[16:1],8xh[16:1],4xh[8:1],,8b,,
{16}7bqq5[8:1]/3bqq1[8:1],,,,7/3,,,,1x-3<4[8:1]/5x,,,5,1x-7<6[8:1]/5x,,5,,
{16}5bw1[8:1]/1x,,,,5,,,,3xh[16:1],7xh[16:1],3xh[16:1],7xh[16:1],3xh[8:1],,7b,,
{16}4xb-2<1[8:1]/8xb-6>5[8:1],,1/5,,8/4,,,,1x/5x,,,1/5,1-3<4[8:1]/5-7>8[8:1],,8/4,,
{16}1b-7<6[8:1]/5b-3>2[8:1],,,,1x/5x,,,,5xh[16:1],1xh[16:1],5xh[16:1],1xh[16:1],5xh[8:1],,1b,,
{16}2bpp4[8:1]/6bpp8[8:1],,,,2/6,,,,8x-6>5[8:1]/4x,,,4,8x-2>3[8:1]/4x,,4,,
{8}4xbw8b[8:3]/8x,,4xb,,,,,
{32}8x,8x,8x,8x,
{16}8xw4[8:1],,,,8,,,,2x/6x,,,1/5,1-3<4[8:1]/5-7>8[8:1],,8/4,,
{16}1b-7<6[8:1]/5b-3>2[8:1],,,,1/5,,,,1xh[16:1],5xh[16:1],1xh[16:1],5xh[16:1],1xh[8:1],,5b,,
{16}2xb-4<5[8:1]/6xb-8>1[8:1],,1/5,,2/6,,,,8xh[16:3]/4x,,,4,8xh[8:1]/4x,,4,,
{16}7b-5>4[8:1]/3b-1<8[8:1],,8/4,,7/3,,,,8xh[16:1],4xh[16:1],8xh[16:1],4xh[16:1],8xh[8:1],,4b,,
{16}1b-3<4[8:1]/5b-7>8[8:1],,8/4,,1/5,,,,4xh[16:3]/8x,,,8,4xh[8:1]/8x,,8,,
{16}8b-6>5[8:1]/4b-2<1[8:1],,1/5,,8/4,,,,5xh[16:1],1xh[16:1],5xh[16:1],1xh[16:1],5xh[8:1],,1b,,
{16}3b-1<8[8:1]/7b-5>4[8:1],,8/4,,7/3,,,,1xh[16:3]/5x,,,5,1xh[8:1]/5x,,5,,
{16}1xb/5xb,,,,1h[16:1],,1h[16:1],,5,,5,,1x/5x,1x/5x,1x/5x,1x/5x,
{1}1xbpp8[4:5]/5xbpp4[4:5],
{1},
{1}1b>4qq2[4:5]/5b<8qq6[4:5],
{1},
{1}2bpp3>8[4:5]/6bpp7<4[4:5],
{1},
{1}1bpp4[2:1]/5bpp8[2:1],
{64}8xb,7x,6x,5x,4x,3x,2x,1x,
{48}8xb,7x,6x,5x,4x,3x,2x,1x,
{32}8xb,7x,6x,5x,4x,3x,2x,1x,
{24}8xb,7x,6x,5x,4x,3x,2x,1x,
{16}8x,7x,
{16}6xh[8:1]/5x,,5,5,6h[8:1]/5,,5,,6h[8:1]/5,,5,5,6h[8:1]/5,,5,,
{16}6xh[8:1]/4,,4,4,6h[8:1]/4,,4,,6h[8:1]/4,,4,4,6h[8:1]/4,,4,,
{16}3xh[8:1]/4b,,4,4,3h[8:1]/4,,4,,3h[8:1]/4,,4,4,3h[8:1]/4,,4,,
{16}3xh[8:1]/5,,5,5,3h[8:1]/5,,5,,3h[8:1]/5,,5,5,3h[8:1]/5,,5,,
{16}2b/5b,,3,,6,5,,5,7xb/4xb,,6,,3,4,,4,
{16}2b/5b,,3,,7,5,,5,8xb/4xb,,6,,2,4,,4,
{8}1b/5b,3,8b/4b,6,
{32}1,2,3,4,5,6,7,8,1,2,3,4,5,6,7,8,
{1}1b>4[2:1]*qq6[2:1],
{32}7xb-5>4[32:3]/3xh[16:3],,,,,,,,7/1h[8:1],,,,3x,2x,1x,8x,7x,6x,5x,4x,3x,2x,1x,8x,7x-5>4[8:1]/3x-1<8[8:1],,,,8/4,,,,
{32}7b/3b,,,,,,,,1x,2x,3x,4x,5x,6x,7x,8x,1x-3<4[8:1]/5x-7>8[8:1],,,,2x/6x,,,,1b/5b,,,,,,,,
{8}4x>1[4:1],4,1<6[4:1],1,6x>3[4:1],6,3>8[4:1],3,
{8}8x<5v8[8:3]*<5v2[8:3],,5w1[8:1],,,,,,
{32}2xb-4<5[32:3]/6xh[16:3],,,,,,,,2/8h[8:1],,,,6x,7x,8x,1x,2x,3x,4x,5x,6x,7x,8x,1x,2x-4<5[8:1]/6x-8>1[8:1],,,,1/5,,,,
{32}2b/6b,,,,,,,,8x,7x,6x,5x,4x,3x,2x,1x,8x-6>5[8:1]/4x-2<1[8:1],,,,7x/3x,,,,8b/4b,,,,,,,,
{16}2x/6xh[8:1],,2,6,2/6,,2,,2/6h[8:1],,2,6,2/6,,2,,
{8}6xhb[8:1]/2xhb[8:1],,2b-7<5[16:3]/6b-1>3[16:3],,2x/6x,,,
{32}4x,4x,4x,4x,
{16}4xw8[8:1],,,,4b`Cf,,,,2x/6x,2/6,,8/4,8-6>5[8:1]/4-2<1[8:1],,1/5,,
{32}8b/4b,,,,,,,,8x,1x,2x,3x,4x,5x,6x,7x,8xqq6[8:1]/4xqq2[8:1],1x/5x,2x/6x,3x/7x,4x/8x,,,,8x/4x,,,,,,,,
{8}5x<7[16:3],5,8>2[16:3],8,3x<5[16:3],3,6<8[16:3],6,
{8}1x>4v1[8:3]*>4v7[8:3],,4w8[8:1],,,,,,
{16}3bpp4[8:1]/7bpp8[8:1],,,,3/7,,,,7x/3x,7/3,,1/5,1-3<4[8:1]/5-7>8[8:1],,8/4,,
{32}1b/5b,,,,,,,,1x,8x,7x,6x,5x,4x,3x,2x,1xpp3[8:1]/5xpp7[8:1],8x/4x,7x/3x,6x/2x,5x/1x,,,,1x/5x,,,,,,,,
{16}3x/7xh[8:1],,3,7,3/7,,3,,3/7h[8:1],,3,7,3/7,,3,,
{8}1xhb[16:1]/5xhb[16:1],3hb[16:1]/7hb[16:1],2xhb[16:1]/6xhb[16:1],4hb[16:1]/8hb[16:1],3xhb[16:1]/7xhb[16:1],5hb[16:1]/1hb[16:1],1x<5p3>8b[4:6]/5x>1p7<4b[4:6],3/7,
{1}1xb/5xb,
{1},
E
