&title=BMS:B.M.S.(?)
&artist=テレビ光吉放送局
&first=0.05
&des=MMFC譜面放送局
&lv_6=15
&inote_6=(200){1},
{8}3/5/6,2,4/5/6,4,{4}5/6/2-4[8:1],
5/6,{8}3/5/6,2,4/5/6,4,2/5/6,3,{16}4,5,4,5,4,,
{8}2,4/5,4,2,2,2/3,2/3,4h[16:1],4h[16:1],
4h[16:1],4h[16:1],4h[16:1],4h[16:1],
4h[16:1],4,1/5/6,1,1/5/6,1,{4}5/6/1-4[8:1]*-3[8:1],
5/6,{8}2/5/6,{16}2,3,{8}4/5/6,4,4/5/6,3,4/5/6,3,4/5/6,
4,3/5/6,3,2/5/6,2,1/5/6,1,{4}5/6/2^7[4:1],
5/6,5/6,5/6/4^1[4:1],5/6,5/6,{8}1/5/6,2,3/5/6,
4,3/5/6,2,{4}5/6/1pp1[4:1],5/6,5/6,1h[4:1]/5/6,
5/6,{8}1/5/6,1,1/5/6,1,{16}12,78,12,78,23,
76,23,76,34,56,34,56,23,67,23,67,{8}34,4,
4/5,4,{16}3/5,,,2/4,,,{8}1/3,5,
4/5,4/5,4/5,{16}4/6,,,5/7,,,{8}
6/8,4,4,4,3/5,4/6,5,5,3/6,{32}
1,2,3,4,5,6,7,8,{4}1h[4:1],{32}
8h[64:1],7h[64:1],6h[64:1],5h[64:1],4h[64:1],3h[64:1],2h[64:1],1h[64:1],{4}8h[64:1],{8}4/5,5,
4/5,5,{16}4/6,,,5/7,,,{8}6/8,4,
4/5,4/5,4/5,{16}3/5,,,2/4,,,{8}
1/3,5,5,5,4/6,3/5,4,4,3/6,{32}
4,4,5,5,3,3,6,6,
2,2,7,7,1,1,8,8,
2,2,7,7,3,3,6,6,
4,4,,,,,,,{8}3/4/8,8,3/4/8,8,{4}3/4/8-5[8:1]*-6[8:1],
3/4,{8}3/4/7,7,3/4/5,{16}5,6,{8}3/4/7,6,3/4/5,6,3/4/5,
5,3/4/6,6,3/4/7,7,3/4/8,8,{4}3/4/7^2[4:1],
3/4,3/4,3/4/5,{16}7h[8:1]/1,2,3,4,6h[8:1]/1,2,3,4,7h[8:1]/1,
2,3,4,8h[8:1]/1,2,3,4,7h[8:1]/1,2,3,4,6h[2:1]/1,2,3,4,
1,1,1,1,{4}1,{16}2h[8:1]/8,7,6,5,
3h[8:1]/8,7,6,5,2h[8:1]/8,7,6,5,1h[8:1]/8,7,6,5,
18,45,18,56,18,45,18,56,18,67,18,78,{4}18,{8}4h[4:7]/5,
,,56,{2}56,{8}56,,,56,,,{16}56,4,{8}
56,{2}4v1[8:1]*-2[8:1]/5^2[8:1]*p1[8:1],4v1[8:1]*-2[8:1]/5^2[8:1]*p1[8:1],
{8}4/5,2/4,4/5,2/4,4/5,2/4,{4}
4/5,45,{8}6,5,4,3q5[8:5],{8}3h[1:1],,3,,,3,,,
{16}5,5,5,5,
{8}5h[8:1],,,3h[8:1],,,7,,
{6}6/8,1/7,2/8,1/3,2/4,35,{4}5,3/5,2/5,5/1-3[8:1]*^4[8:1],5/1-6[8:1]*-7[8:1],
5/1-4[8:1],1/5,{16}5,5,5,5,{4}1h[4:1]/5,{8}
5,1h[4:1],{4}5,1/5,5qq5[4:1]*-8[8:1],
5,6,{16}4b,4,4,4,{4}4/5,4/6,4/7,4/8-6[8:1]*^5[8:1],
4/8-3[8:1]*-2[8:1],4/8-5[8:1],4/8,{16}4,4,4,4,{8}
4/8h[4:1],,,8h[4:1],{4}4,4/8,1-5[8:1]*-3[8:1]/8-4[8:1]*-6[8:1],
18,27,4b/5b,{8}76,65,23,34,{4}8h[8:1],
4h[8:1],3/6,{8}1s5[8:1]/5s1[8:1],
,,,,{4}4h[8:3]/5,{8}6,{4}6,{8}
4h[8:1],5,4h[8:1],5,3h[8:1],5,
3h[8:1],5,2h[8:1],5,2h[8:1],5,
1h[8:1],5,1h[8:1],5,{16}85,85,85,
85,85,85,85,85,{8}5bz1[8:1]/8s4[8:1],,,,,{4}4/5,
{8}4/6,3/5,4/6h[8:3],,,{4}4,{8}
8bpp8[4:1]*-5[8:1],,,,,{4}4/5,{8}
3/5,4/6,3/5,4/6,3/5,,,2bqq2[4:1]*^5[8:1],
,,,,{4}4/5,{8}4/6,3/5,4/6h[8:3],
,,{4}4h[1:1],{32}1,2,3,4,5,6,7,8,{16}
1h[16:1],3h[16:1],5h[16:1],7h[16:1],{12}1,4,7,{4}2,4/5,{8}
6-3[8:1]*^3[8:1],6,2-7[8:1]*v7[8:1],2,6-3[8:1]*v3[8:1],
6,2-7[8:1]*^7[8:1],2,6,6,3/6,3/6,{32}1b/5h[2:1]/6h[2:1],
2,3,4,5,6,7,8,1,2,3,4,5,6,7,8,
{8}1,1,1,5,4/6,5,5,4,3,5,6,4,{32}
8b/3h[1:1]/4h[1:1],7,6,5,4,3,2,1,8,7,6,5,4,3,2,
1,8,7,6,5,4,3,2,1,8,7,6,5,4,3,
2,1,{4}8,{32}1b/6h[8:3]/7h[8:3],2,3,4,5,6,7,8,
1,2,3,4,{8}5,{4}5,{32}8b/2h[8:1]/3h[8:1],7,6,5,
,,,,1b/6h[8:1]/7h[8:1],2,3,4,,,,,8b/2h[8:3]/3h[8:3],7,6,5,4,3,
2,1,8,7,6,5,{8}4,{4}4,{32}8b/3h[2:1]/4h[2:1],7,
6,5,4,3,2,1,8,7,6,5,4,3,2,1,
{64}8b,7,6,5,4,3,2,1,8,7,6,5,4,3,2,1,
8,7,6,5,4,3,2,1,8,7,6,5,4,3,2-6[32:49],1,
{16}
8b,6b,4b,2b,{16}8b,8b,8b,8b,8b,8b,8b,8b,8b,8b,8b,8b,8b,8b,8b,8b,8b,8b,8b,8b,8b,8b,8b,8b,8b,,,,{8}2,6,{16}
3,4,3,2,3,4,3,2,3,4,3,2,3,4,3,2,{8}
4b/8b,4b,4b/8b,4b,4b/8b,4b,{4}
4b/8b,{16}56,4,56,7,56,4,56,7,56,4,
56,7,{4}56,{16}4,5,{8}4,3/5,4/6,
{16}5,{8}4,{16}8,{4}1/8,{8}7h[16:1]/6h[16:1],
6h[16:1]/5h[16:1],5h[16:1]/4h[16:1],4h[16:1]/3h[16:1],3h[16:1]/2h[16:1],
2h[16:1]/1h[16:1],{4}1^4[8:1]/8-4[8:1],
{32}1b-5[8:1]/8b^5[8:1],2b,3b,4b,,,,,
1b^4[8:1]/8b-4[8:1],7b,6b,5b,,,,,
1b-5[8:1]/8b^5[8:1],2b,3b,4b,,,,,
1b/8b,7b,6b,5b,,,,,{8}4h[8:1]/5,
5,3/6h[8:1],3,2h[8:1]/7,7,1/8h[8:1],
1,{16}2h[8:1]/4h[8:1],,,3h[8:1]/5h[8:1],
,,4h[8:1]/6h[8:1],,,5h[8:1]/7h[8:1],
,,{4}6/8,{8}5/2-4[8:1]*^5[8:1],5,6b,6,
4/7-5[8:1]*-4[8:1],4,3b,3,5/2-5[8:1]*^4[8:1],5,
6b,6,4/7-4[8:1]*^4[8:1],3,2b-4[8:1],2,
8b-6[8:1],8,1b-3[8:1],1,7b-5[8:1],
7,4b,4h[8:1],{16}5b,56,67,78,81,12,23,43,45,56,
67,78,
{64}1b,2b,3b,4b,
5b,6b,7b,8b,
1b,2b,3b,4b,
5b,6b,7b,8b,
{1}1bv8[33.33#2:1],{4},
