&title=夢見る花火
&artist=水谷瑠奈
&first=0
&des=DgsEOs
&clock_count=4
&lv_5=13
&inote_5=(120)
{1},,,,,
{2}2h[1:1],5,6h[1:1],1,8h[8:7],7,
{16}1b/6b,,3,4,3qq1[6:1],4p8[12:1],3,4,,,,,2/6,,,,
{16}3/7,,4,6,4,6h[16:2],,2,,,3/7,,2,,1,,
{16}6/2,,5,3,5,3h[16:2],,7,,,6/2,,7,,8,,
{16}3/7,,8,2,8,1h[16:2],,5,,,2/6,,5,,3,,
{16}6/2,,1,7,1,8h[16:2],,4,,,7/3,,4,,6,,
{16}3/5,,2,6,1,7h[16:2],,5h[16:5],,,1,,8,,7/3,,
{16}6/4,,7,3,8,2h[16:2],,4h[16:5],,,8,,1,,2/6,,
{16}3/5,,1,6,2,7h[16:2],,8h[16:5],,,4,,6,,3/7,,
{16}6/4,,8,3,7,2h[16:2],,1h[16:5],,,5,,4pp4[8:6],,3,,
{4}2,2,1,1pp1[4:3],6,6,7,7pp7[4:3],3,3,4,4pp4[4:3],8,8,1,1V35[4:1]*V75[4:1],
{4},,6-2[16:3],3,4-8[16:3],7,5-1[16:3],4pp5[4:1]*qq3[4:1],
{4},,2-4[8:1],8v5[8:1],1-3[8:1],7v4[8:1],8-2[8:1],5pp5[4:1]*qq5[4:1],
{8}5b,,,6,7,8,3,2h[2:1]/5,,3,4q8[16:3],5<3[16:5],,,,,
{8},3/5,4,6,2/5,1,7,8h[2:1]/5,,7,6,5h[2:1],,7,8q1[4:1],1,
{8},,,3h[2:1],8,6,7,5h[2:1],,8,2,1h[8:3],,5,7,2/6h[8:3],
{8},3,5,4h[8:3]/7,,8,2,1h[8:3]/3,,4,6pp7[8:3],5qq4[4:1],,,,,
{16}5/6,,5,7,4,6,3,5,
{8}2h[8:2],,1h[8:1],4,
{16}5/6,,5,7,4,6,3,5,
{8}2h[8:2],,1h[8:1],4,
{16}5,8,5,7,4,6,3,5,
{8}2h[8:2],,1h[8:1],4,
{16}5,8,5,7,4,6,3,5,
{8}2h[8:2],,8h[8:1],5,
{16}6,8,5,7,4,6,3,5p1[16:3],
{8}2>5[8:1],6h,,,
{16}6,8,5,7,4,6,3,5p1[16:3],
{8}2>5[8:1],6h,,,
{16}6,8,5,7,4,6,3,5p1[16:3],
{8}2>5[8:1],1h/6h,,,
{16}6,8,5,7,4,6,3,5,2,4,1,5,
{4}8qq5[4:3],
{16}8/3h[8:1],,,2h[8:1],,,1h[8:1],,,2h[8:1],,,3qq8[4:3],,4,,
{16}3/5h[8:1],,,6h[8:1],,,7h[8:1],,,6h[8:1],,,5qq2[4:3],,4,,
{16}5/8h[8:1],,,1h[8:1],,,8h[8:1],,,7h[8:1],,,8pp3[4:3],,1,,
{16}8/5h[8:1],,,4h[8:1],,,5h[8:1],,,6h[8:1],,,7pp2[4:3],,8,,
{16}7/3h[8:1],,,4h[8:1],,,5h[8:1],,,6h[8:1],,,5pp8[4:3],,4,,
{16}5/2h[8:1],,,3h[8:1],,,4h[8:1],,,3h[8:1],,,2,2,2,,
{16}7bqq5[8:1],,,2,,,1,,8bpp2[8:1],,,5,,,6,,7bpp1[8:1],,,4,,,5,,
{2}6bqq4[8:1]*p2[8:1],
{16}B8/E8f/B7,,2,6,3,5,4,6,2-5[8:1],,3,,8-4[8:1],,7,,
{16}3,,2,5,1,6,2,8,3-1[12:1],,4,,7-5[12:1],,6,,
{16}2b,,3,1,4,7,5,8,3-5[12:1],,2,,3-8[12:1]/7,,8,,
{16}3/6,,7,4,6,3,8,4,5,,3/5,,2/1,,8/7,,
{16}4b/6b,,5,3,4,2,6,3,7,5,8,3,7,1,6,,8b/7b,,1,6,8,7,2,6,3,4,1,5,2,7,1,,
{16}2h[16:3]/8,,,7,2h[16:2],,6,,5/2h[16:2],,4,,3/2h[16:2],,4,,
{16}5h[16:3]/2,,,3,5h[16:2],,4,,6/5h[16:2],,7,,8/5h[16:2],,1,,
{12}2h,6h,2h,5h,3h,5h,
{16}4,6,3,5,2,6,4p2[8:13]*q6[8:13],,
{1}B8f,,
{16}2/6,,5,3h[8:1],,6,4h[8:1],,7,5h[8:1],,8,6,,6/8,,
{16}5,7h[8:1],,4,6h[8:1],,3,5h[16:2],,,2/4,,2/4,,2/4,,
{16}1/3,,2,,1/8,,7,5,6,5,7,,8/1,,2,,3/4,,5,,4/7,,3,1,2,1,3,,5/6,,7,,
{16}8/6,,5,,3/4,,7,5,6,5,7,,1/2,,4,,1/7,,2,6,3,5,4,4,6,6,3,3,5,5,2,2pp1[16:45],
{1}1<1[4:11],
