&title=Re:VeLΔTiØN ~光道ト破壊ノ双白翼~
&artist=NeLiME OVERDRIVE vs. Apo11o"月読命"program
&first=-0.0635
&lv_4=13
&des=Vor"angel"
&inote_4=
(137){16},,,,4/6h[8:3],,,4,,,{8}3,{4}5/2,
{16},,,,5/3h[8:3],,,5,,,{8}6,{4}4/7,
,8/2v5[8:1],,4/6v1[8:1],
,2h[4:1],{8}5,6,{4}4h[4:1]/7h[#0.8759122],
{16},,,,Cfh[1:1],(134),(132),(130),(128),(126),(124),(122),(119),(116),(114),(112),
(110),(107),,,(167){8}7-3[8:1],7,4-1[8:1],4,8,8,
{32}8h[#0.3592815],,,,,,,,{8}2,3,4,5,6b,7b,
8b,1b,2-5[8:1],2,6-1[8:1],6,3,3,
{4}3h[4:1],{8}7-4[4:1],7,{4}7,{8}1bxh[16:1],2bxh[16:1],
3bxh[16:1],4bxh[16:1],{16}7-3[16:1],,,2-6[16:1],,,{8}8-4[16:1],{16},1-5[16:1],,,,,,,{4}6h[2:1]/3h[2:1],
,,,7/4,
{8},2,,5,
,7,,A4,A5,A3,A6,A2,
A7,A1,A8,A1,A7,A2,A6,A3,
A5,A4,Cf,A4,A5,A3,A6,A2,
A7,A1,A8,A1,A7,A2,A6,A3,
A5,A4,{4}7,{8}7h[8:1],{16}3,5,{8}3,6,
{4}6,2,{8}2h[8:1],{16}6,4,{8}6,3,
{4}3,7,{8}7h[8:1],{16}2,8,{8}2,6,
{4}6,7<4[4:1],4>1[4:1],1<6[0.3593##0.3593],
6,(79)4>8[4:1],{2}6h[4:1],
{4}2>6[4:1],8h[4:1],,8<4[4:1],
{2}2h[4:1],{4}6<2[4:1],4h[4:1],
,6h[4:1],5>2[4:1],{8}B3,B4,
{4}5h[4:1],4>1[4:1],{8}B2,B3,{4}4h[4:1],
3>8[0.7595##0.7595],{16}B1,,{8}B2,(76){4}Cfh[4:3],(71),
(66),(28){16},(47),(84),(65),(102),(120),(139),(157),(167){4}7bh[8:7]/2bh[4:1],
{8},,2b,2b,2b,2b,5b,5b,
4b,4b,6bv1b[16:1],6b,3bv8b[16:1],3b,5b,6b,
7b,8b,1b,2b,3b,4b,{4}5bxh[2:1],
,Cf,{8},,6bh[2:1],5b,
4b,3b,2bh[2:1],3b,4b,5b,7bh[2:1],6b,
5b,4b,3bh[2:1],4b,5b,6b,7bh[4:1],5b,
2bh[4:1],4b,6bh[4:1],8b,3bh[4:1],1b,8b,7b,
6b,5b,4b,3b,2b,1b,{4}8h[2:1],
,4h[2:1],,6h[2:1],
,2h[2:1],,7V15[2:1],
{16},,,,,,,,,,,,4,5,4,5,
{1}4>8[2:1],
{8}6b,6,3,3,5,2,6,6,
4,7,2,2,6,4,7h[16:5],3h[8:3],
,,,,{4}6,{16}4,5,4,5,
{4}4,{16}6,3,6,3,6,3,6,3,(166){4}6x<6[2:7],
,,,B2,
B3,,,B8,
B1,,,B6,
B7,,,Ch[1:2],
,,,B7,
B6,,,B1,
B8,,,B3,
B2,(168)5s1[4:1],,3,
{8}3/8,7h[8:1],3,6h[4:1],{4}3,2/5h[8:1],
{8}2/6,6h[8:1],2,7h[8:1],2,8,1<3[2:1],7h[8:5],
1,,,,,5-1[8:1],3,5,
{16},,,,2,1,2,1,3,8,3,8,{4}2h[8:1],
{8}7/1,1h[8:1],7,2h[8:1],7,3,{4}6/3h[8:1],
{8}6/4,4h[8:1],6,3h[8:1],6,2,{4}5/2h[8:1],
5/1h[2:1],5,5-8b[8:1],{8}5b,1,
{16},,,,E1,B8,C,B4,{4}E5,{16}6,4,{8}6,
{16}3,5,{8}3,{16}7,5,{8}6,{16}2,4,{8}3,{16}7,4,{8}7,
{16}2,5,{8}2,{4}8h[4:1],1h[4:1],{8}7h[24:1],8h[24:1],
7h[24:1],1h[24:1],8h[24:1],2h[24:1],1h[24:1],2h[24:1],{4}7h[4:1],
{8},2h[4:1],,6,{4}6,8b/7bV51[4:1],
{8}3,3,,4h[8:1],,6h[8:1],{16},,7,5,
7,5,{8}7,{16}2,4,2,4,1,5,1,5,{8}2bxV84[4:1],2bx,
6,6-2[8:1],6bx,6bx,{16},,,,7b/4b,,,5b/2b,
,,{8}8b/6b,{16},1b/3b,,,2,7,2,7,{4}2,
{16}7,1,7,1,{8}7-4[8:1],7,2,2,{16}5,3,5,3,
{8}5-8[8:1],5,2,3,{4}4>8[4:1],8<4[4:1],
4>8[4:1],8<4[4:1],{2}4q7>6[8:7],
{8},,,,,,7,7,
8,8,1,1,2,2q3[4:1],2,2,
{16},,,,5x,3x,5x,3x,6,4,6,4,{8}7h[8:1],8h[8:1],
1h[8:1],2h[8:1],3h[8:1],4h[8:1],5h[8:1],6h[8:1],{16}7h[4:1],,,4,
{8}4,2h[4:1],{16},5,{8}5,{4}3b/6b,{16}6,5,6,5,
6,5,{8}6,{16}7,8,7,8,7,8,{8}7,{16}3,4,3,4,
3,4,{8}3,{16}2,1,2,1,2,1,{8}2,7/3h[4:1],7,
7,2/6h[4:1],2,2,{2}1h[4:1]/5-1-7[8:3]*-1-3[8:3],
{16},,,,4,6,4,6,4,6,{8}4,3-8[8:1],3,
7-4[8:1],7,2-5[8:1],2,6-1[8:1],6,4,4,
4,3h[4:1],,7,{4}2/7-3[4:1],{16}3-1[16:3],,,1-5[16:3],
,,{8}5-7[8:1],{16},3,,,{8}2,2,{16}2x,3x,4x,5x,
6x,7x,8x,1x,2,3,4,5,6,7,8,1,(80){4}2h[4:1],
,,{16},,,{64},,,5,{4}3h[4:1],
{64},,,,,,,,,,,,,,,4,{4}6h[4:1],{64},,,,,,,,,,,,,,,1,(78){4}7h[#0.7692261],
(75){64},,,,,,,,,,,,,,,8,(72){4}2h[#0.8333282],(69)8-4[0.8696##4.4404]*-4[0.8696##4.4404],(66),
(63),(60),(57){2},
E
&lv_5=14+
&des=Supersonic a.k.a. Voranger
&inote_5=
(137){16},E7,B6,B5,{4}3/E5,{12}E3,B2,B1,7/E1,{48},,,,,{16}E7,
B7,B8,E3,B3,{8}5/B4,7,1,3,{4}5,
{16}E4,B3,B2,E2,6,,,E2,{8}B2,{16}B7,B6,3/E6,,,E4,
E8,E2,E6,C,{8}B8/B4,B7/B3,B6/B2,B5/B1,{4}C,
{16},,,,5<8z4[0.4505##1.2776]/4>1s5b[0.4505##1.2776],(134),(132),(130),(128),(126),(124),(122),(119),(116),(114),(112),
(110),(107),,,(167){8}4/7x-3[16:1],4,{16}3/7x,2,{8}1,5,{16}2x,7,
3x,6,{32}4,,,,{16}8x-4[16:1],7,6,5,{4}8x,{8}7bx/8bx,6bx/1bx,
5bx/2bx,4bx/3bx,5/2x-6[16:1],5,{16}6/2x,7,{8}8,4,{16}5x,4,
7x,2,{8}5,{16}1,2,3,4,{8}5,{16}7,7,1x,{32}2x,3x,{16}4x,8x,
7x,6x,2x,3x,5bh[64:1],6,7,8/3bh[64:1],2,1,8/7bh[64:1],6,5,4/1bh[64:1],2,3,
4/8bh[64:1],7,6,5,{4}4>4[2:1],{8},,,,,,8/7,
6,5,4/7,,5/2,
,3/6h[8:5],,5h[16:1],4h[16:1],3h[16:1],2h[16:1],1h[16:1],
8h[16:1],7h[16:1],6bxh[16:1],7h[16:1],8h[16:1],1h[16:1],2h[16:1],3h[16:1],
4h[16:1],5h[16:1],6x/3xh[2:1],4h[16:1],5h[16:1],6h[16:1],7h[16:1],8h[16:1],
1h[16:1],2h[16:1],3bxh[16:1],2h[16:1],1h[16:1],8h[16:1],7h[16:1],6h[16:1],
5h[16:1],4h[16:1],3bx/6bx,{16}4,4,5x,5,3,3,6,6,2x,2,
7x,7,1,1,8bx,8b,1,1,7x,7,2,2,6,6,3x,3,
5x,5,4,4,7x,6,5,4,1x,2,3,4,6,7,8x,1,
4x,3,2,1,7x,8,7,8,6x,1,6,1,5x,2,5x,2x,
4x,3x,4x,3x,(79){8}6h[8:1],4h[8:1],2h[8:1],4h[8:1],6h[8:1],1h[8:1],
7h[8:1],4h[8:1],1h[8:1],3h[8:1],6h[8:1],2h[8:1],4h[8:1],1h[8:1],
6h[8:1],4h[8:1],2h[8:1],3h[8:1],7h[8:1],4h[8:1],1h[8:1],4h[8:1],
5h[8:1],1,3h[8:1]/7-5[8:1],5-1-3-7[16:5],2h[16:1],3h[16:1],4h[16:1],2h[16:1],
8h[8:1]/4-2[8:1],2-6-8-4[16:5],7h[16:1],6h[16:1],5h[16:1],6h[16:1],3h[8:1]/6>4[8:1],4-8>2-6[0.7595##0.9494],
1h[16:1],2h[16:1],{16}3h[#0.1898727],,{8}4h[16:1],(76)2,5,(71)7/4,3,
(66)4z8b[0.9091##0.2679]/5s1b[0.9091##0.2679],3/6,(28){16}5b/4b,(47),(84),(65)Ch[16:1],(102),(120),(139),(157),(167)5,4,7,2,
6,3,8,1,7,8,6,{32}1,2,{16}3,5,2,7,4,8,3,6,
1,8,3,6,2,7,3,{32}6,5,{16}4,2,{32}7,6,{16}5,1,8,3,6,
2,7,4,5,3,8,2,{32}7,6,{16}5,3,2,1,8bx,8bx,8bx,8bx,
{8}8bx,2,{4}5-8[8:1]/4-1[8:1],{32}5/4,E6/E4,B6/B3,B7/B2,{8}E8/E2,{16}8x,1,6,3,
7,2,5,4,8,1,7,{32}2,3,{16}4,6,5,7,2,1,3,8,
4,7,5,6,1,8,2,{32}7,6,{16}5,3,4,2,6,5,7,4,
8,3,1,2,7,4,6,{32}1,2,{16}3,6,4,6,1,7,{32}2,3,{16}4,
8,2,{32}7,6,{16}5,{32}2,3,4,5,6,7,8,1,2/7,6,5,4,3,2,1,8,{8}7xh[2:1],4x,
3x,2x,1h[2:1],7,6,5,4h[2:1],3,
2,1,8h[2:1],7,6,5,{4}4b,
{16}1,5,2,6,3,7,2,6,1,5,2,6,{32}3x,7x,3x,7x,3x,7x,3x,7x,
{4}3x>3[2:1],,,C,
{8}4b/5b,3,4/6,7,3/5,2,3/7,6,
7/4,6,3/5,2,3/6,7z3[4:1],2/6,3z7[4:1],
{2}2h[4:1],{16}E3,B2,B1,E1,8x-3[16:1],8x,8x-5[16:1],8x,
{4}8x,{16}4x,4x,4x,4x,3x,5x,2x,6x,(166)A1,D2,A2,D3,
A3,D4,A4,D5,A5,D6,A6,D7,A7,D8,A8,D1,B1,E2,B2,E3,
B3,E4,B4,E5,B5,E6,B6,E7,B7,E8,B8,E1,1x,5x,1x,5x,
2,6,2,6,3,7,3,7,4,8,4,8,3,7,3,7,
2,6,2,6,1,5,1,5,2-7[16:1],6-3[16:1],2,6,{4},,{24}8,
4,1,5,2,6,3,7,4,8,5,1,6h[6:1],2h[6:1],,,,,5h[6:1],
1h[6:1],,,,,4h[6:1],8h[6:1],,,,,3h[6:1],7h[6:1],,,,,2p7>3[1:1],6p3<7b[24:23],{1},{4},{16},,{24},(168){16}8,
7,6,5,1,2,3,4,{8}7-3[8:1],3-6[8:1],
2/7,1>5[8:1],2,7/1,8-4[8:1],6,8/2-6-3[4:1],1,
2/8,7-4[8:1],8,7/2-6[8:1],3,2/6,8<4[8:1],4>8[8:1],
,,B3,B5,B7,B1,5-1[8:1],5xh[4:1],
{16},,,,5,6,7,8,4,3,2,1,{8}8-4-6[4:1],2,
8,3-8[8:1],2,3/7h[4:1],,1,2-5[8:1],8,
2,1-6[8:1],3,1,,2,{4}2-6[16:1],
2/8h[8:5],5,6-2[16:1],{8}6b,8h[8:5],
{16}B2,,,E3,,B3,,,{8}B4,A4,{16}7,1,7,1,
5,3,5,3,8,2,8,2,6,4,6,4,8,1,7,2,
6,3,5,4,{4}3x-8[16:1]/5x-8[16:1],5x/3x,{24}8,7,6,2,3,4,
7,6,5,1,2,3,6,5,4,8,1,2,7-3[16:1],6,5,1,2,3,{8}7,5-1[16:1],
7,5,,E8,C,E4,{4}6b/2b,
{8}7/8,8-3[8:1]/7-4[8:1],,8/7,,2h[8:3],{16},,B8,B7,
B6,B5,{8}B4,{16}6xh[4:1],B8,B1,B2,B3,B4,,,{8}2bx/5bx,5/2,
{16}7,8,7,8,{8}1bx/6bx,{32}2,3,4,5,{8}7h[16:1],{32}1,2,3,4,{16}6b-3[16:1],,,2b-7[16:1],
,,{8}8b-5[16:1],{16},4b-1[16:1],,,E7,B6,B5,E5,{4}E2f,
{16}6,4,8,2,6,4,8,2,6,4,8,2,6,4,8,4,
2,4,8,4,6,4,8,4,2,4,{8}8,{16}1,7,3,7,
5,7,3,7,1,5,7,5,1,5,3,5,1,2,3,4,
2,3,4,5,3,4,5,6,4,5,6,7,{8}2-6[8:1],8>6[4:1],
{2}2,{16}1,2,3>6[16:3],4,{32}5x/A7,B7,C,B3,{8}4xh[4:1]/A3,
{16},,,,3,2,1,8,2,1,8,7,{8}4xh[16:1]/6xh[16:1],6xh[16:1]/4xh[16:1],
7xh[16:1]/3xh[16:1],7xh[16:1]/3xh[16:1],8xh[16:1]/2xh[16:1],8xh[16:1]/2xh[16:1],{16}1x,7x,1x,7x,6b/2b,,,3,
{8}4,7b/3b,{16},6,{8}5,{4}7b/2b,{16}8x,D2,7,B7,
6,D3,5,B6,5x,D4,6,B6,7,A2,{8}8,{16}1x,D8,2,B2,
3,D7,4,B3,4x,D6,3,B3,2,B6,{8}1,8b/7b,8b/7b,
5,2b/1b,1b/2b,4,{4}5bV38[4:1]/3bV58[4:1],5b/3b,
{16},,,,8,1,8,1,8,1,8,1,7,8,6,1,
5,2,4,3,{24}5,6,7,3,2,1,6,7,8,4,3,2,{8}1x/6x,{16}7,8,
{8}7,6xh[4:1]/1xh[4:1],{16},,,,7,2,8,3,{32}1b,8,7,6,{16}5,{32}1b,2,
3,4,{16}5,{32}1b,8,7,6,{16}5,{32}1b,2,3,4,{16}5,7b,1b,7b,1b,{24}6,5,4,3/8,1,2,
3/7,6,5,1/4,2,3,{32}4/8,7,6,5,4,3,2,1,8/4w8[0.3571##0.1875],5,6,7,8,1,2,3,(80){4}4b>4[2:1]*<4[2:1],
,,{16},,,{64},,,B6,{8}3/B5,{16}2,2,
{64},,,,,,,,,,,,,,,B7,{8}B8,1,2,{64}3,,,,,,,B3,(78){8}6/B4,{16}7,7,
(75){64},,,,,,,,,,,,,,,B2,(72){8}B1,6,(69)7,8,(66){20}1,{160}8,,,,,,,1,,,,,{32}8,1,{48}8,1,{192},{64}8,
(63),1,{192},,{48}8,1,{96},{32}8,1,8,1,8,(60)1,8,1,8,,1,,8,(57){16},2,{32},7,{64},,,,3/B6,B5,{32}B4,
E
