&title=风屿
&artist=闫东炜
&first=0.02
&des=AmieZz
&clock_count=4
&lv_5=14
&inote_5=(170){1},
{16}2q5[8:14],,,,6,,,,8h[4:1],,,,,,,,
8,,,,7,,,,6h[4:1],,,,,,,,8p5[8:10],,,,,,,,
2,,,,,,,,4h[4:2],,,,,,,,,,,,,,,,
7<4[2:1],,,,3,,,,2h[4:1],,,,,,2,,1h[2:1],,,,8,,,,7,,,,
7,,6,,5h[2:1],,,,4,,,,3,,,,2,,1,,8h[2:1],,,,6,,,,5q8[2:1],,,,,,,,
4,,,,3,,,,2,,,,1>4[2:1],,,,8,,,,7,,,,6q1[2:1],,,,,,,,
4,,,,3,,,,2,,,,1,,,,2/7p4[2:1],,,,,,,,1,,,,1,,,,
1>4[4:1],,,,5,,,,5<8[4:1],,,,3,,,,2>5[4:1],,,,1,,,,
8>3[4:1],,,,,,,,4-8[4:1],,,,,,,,6,,,,,,,,
{1}2q5[8:10]/7p4[8:10],,
{16}1/8,,,,2/7,,,,3,,4,,3,,4,,2/7,,,,
3/8,,,,2,,1,,2,,1,,2-5[8:1],,2,,7-4[8:1],,7,,
3,,3>8[8:1],,,,
{24}7x,6x,5x,4x,,,
{16},,1,,,,2-5[8:1]/8-5[8:1],,,,2/8,,,,
1/6,,,,2/5,,,,3/8,,,,4/7,,1,,3,,4,,2>5[8:1]/5,,,,2/6,,7,,
8<5[8:1],,8,,4,,3,,2-6[8:1],,2,,2,,4<7[8:1],,4,,4>1[8:1],,,,,,
8b,,,,1b/7b,,,,2b/6b,,,,3h[8:1],,,1,1h[8:1],,5,,
5h[8:1],,,7,7h[8:1],,8,,7/8,,8,,6/8,,6,,
6/2,,3/6,,4/6,,6,,4/5,,5/4,,3/6,,3/6,,
7,,8,,1,,2,,3>8[8:1],,,,7,,7<4[8:1],,,,1,,1-5[8:1],,,,
1/8,,,,,,7<5[8:1],,,,7,,4>1[8:1],,3,,4/7,,
6pp1[16:14],,,,,,2,,,,2,,2-4[8:1],,,,2,,,,,,6,,5pp8[16:7],,4,,
5/4-1[8:1],,,,4,,,,,,2/7,,,
1x/8x,1x/8x,,2/7,,3/6>3[8:1],,,,,,2,,,,1,,
1h[4:1],,,,5,,,,5,,5q8[8:4],,,,,,3,,,,1>4[8:1],,,,,,
5,,5<8[8:1],,,,,,1,,1h[4:1],,,,
8,7,6,5,8,1,2,3,4v2[8:1]/8,,,,7>2[8:1],,,,,,
5,,5<8[8:1],,,,,,4,,3-7[8:1],,,,,,,,
4,,,1/7,,,2,,3/1-5[8:1],,,,,,,,7-4[8:1]/8-4[8:1],,,,,,,,
1,,,2,,,3/4,,5,6,7,8,5,4,3,2,1-5[8:1]/5,,,,
1,,,,6,,,,7/8-4[8:1],,,,6,,,,,,6-1[8:1],,4-1[8:1]/6,,,,,,
7,,7,,1,,2/7,,3,,4/8,,7,,6/2,,1/5,,8>3[8:1]/4,,,,
5<8[8:1],,5,,,,1,,1-5[8:1],,,,1/8,,,,7,,6-8[8:1]/8,,,,
1,,2-4[8:1],,,,1,,8-4[8:1],,7,,8,,,,,,3qq8[8:3]/5pp8[8:3],,,,
3/5,,,,,,,,,,,,1,2,3,4,8,7,6,5,3,2,1,8,
5,6,7,8,2,3,4,,
{24}8,1,8,1,8,1,8,1,8,1,8,1,
{16}7xh[4:1],2xh[16:3],,,,,,,
4/5<8[8:1],,,,3/5,,2,,1>4[8:1],,,,
8,,7,,6<1[8:1],,,,4,,3,,2-6[8:1],,2,,
8-5[8:1],,8,,3-8[8:1],,3,,5<8[8:1],,5,,
4>1[8:1],,4,,,,
{24}8x,7x,6x,5x,,,
{16},,8,,,,
1-4[8:1]/7-4[8:1],,,,1/7,,,,
1/7,,6,,2/8,,3,,4/6,,7,,3/5,,2,,
1-4[8:1],,1,,5-8[8:1],,5,,2>5[8:1],,2,,
6<1[8:1],,6,,4-8[8:1],,4,,5-7[8:1],,5,,1-3[8:1],,1,,
8-4[8:1],,8,,1>4[8:1],,,,1,,7,,8<5[8:1]*>3[8:1],,,,8b,,,,
2bq5[8:3]/8b,,,,,,,,,,,,8,,,,8h[4:1],,,,4,,4p1[8:4],,,,,,
6,,,,8<5[8:1],,,,,,4>1[8:1],,4,,,,,,8,,8h[4:1],,,,
1,2,3,4,1,8,7,6,5<7[8:1]/1,,,,3v6[8:1],,,,,,
8,,8<5[8:1],,,,,,4,,3-7[8:1],,,,,,,,
4,,,1/7,,,2,,3/1-5[8:1],,,,,,,,
7/8,,6,,7/8,,1,,2,,3/8,,4,,2/6,,5,,1,,
7/8,,6,,4/5,3,2,1,4/8,5,6,7,
{24}8/1,2,3,4,5,6,7,8,1,2,3,4,
{1}5bxp2[8:10]/6bxpp1[8:10],,
{16}4h[1:1],,,,7,,,,6,,,,5,,,,5pp8[4:3],,,,,,,,
3h[4:2],,,,,,,,,,,,3,,,,4,,,,5,,,,6/3pp8[8:6],,,,,,,,,,,,
8>5[8:6],,,,7,,,,6,,,,5qq2[8:6],,,,6,,,,7h[4:1],,,,,,,,
8h[4:1],,,,,,,,1<5[8:6],,,,E4,,,,E3,,,,,,,,
1V35[8:6],,,,E6,,,,E7,,,,,,,,
8h[1:1],,,,7,,,,6,,,,5,,,,4qq1[8:6],,,,6h[4:1],,,,,,,,,,,,
7pp4[8:6],,,,4,,,,3,,,,,,,,2h[1:1],,,,,,,,3,,,,4,,,,
5pp8[8:6],,,,E1,,E2,,E3,,E4,,E5,,,,
1pp4[8:6],,,,E1,,E8,,E7,,E6,,E5,,,,
{1}8b,
{16}1b/6,2,3,4,5/8,7,6,5,
4/2,3,4,5,8,7,6,5,8,1,2,3,
4/8,7,6,5,4/8,1,2,3,
4/8,7,6,5,4/1,2,3,4,5/7,6,5,4,
1,2,3,4,5/8,7,6,5,4-8[8:1]/8,,8-3[8:1]*-5[8:1],,4,,,,,,,,
1/8b,7,6,5,4/8,1,2,3,4/7,6,5,4,
1,2,3,4,5/1,8,7,6,5/8,1,2,3,4/5,6,7,8,
1/2,3,4,5,8,7,6,5,2,4,3,,7,5,6,,3,4,2,,6,5,7,,
2,1,3,,7,8,6,,4/5,,3/6,,2b/7b,,
2/7,,1b/8b,2,3,4,8,1,2,3,4/1,2,3,4,5/8,7,6,5,
1,8,7,6,2,1,8,7,3,2,1,8,7,6,5,4,
7,8,1,2,4,5,6,7,2,3,4,5,1,8,7,6,5<8[8:1]/1>4[8:1],,,,
1b/5b,,,,1-6[8:1]/5-2[8:1],,,,1b/5b,,,,
7/8,1,2,3,4,5,6,7,8/1,2,3,4,5,7,8,1,
4,5,6,7,8,1,2,3,4/8,7,6,5,4/8,1,2,3,
4xv2[8:1]/8xv6[8:1],,4x/8x,,4x/8x,,,,
5xv7[8:1]/1xv3[8:1],,5x/1x,,5x/1x,,,,
1/6,,2,,3/7,,8,,3/7,,2/6,,1b/5b,,1,,
2b,8,2,8,3,7,3,7,4,6,4,5,3,4,2,5,1,8,
5,6,3,7,1,5,2,4,2,8,1,7,5,6,4,5,2,1,3,8,
4,5,3,6,8,7,1,6,2,7,3,6,4,5,2,7,1,8,2,3,4/6,7,8,,
1x/2x,,3,4,3,4,3,6,5,6,5,7,2,1,2,1,2,8,2,
7,5,7,5,6,4,5,3,6,4,5,3,8,2,
1,3b,1,2,1,3b,1,2,1,3b,1,2,1,3b,1,2,1,
3b,6,4,6,2b,6,4,6,2b,6,4,6,2b,6,4,6,
2b,1,2,1,3,8,4,7,5,6,2,7,1,8,2,6,3,5,
4,7,1,8,2,7,3,6,4,5,2,1,2,8,3,4,2,5,1,6,8,7,
1,4,2,5,3,7,1,8,7-4[8:1]/2-5[8:1],,,,7b/2b,,,,
8-4[8:1]/1-5[8:1],,,,8b/1b,,,,
2,1,2,1,3,8,4,7,8,7,8,6,1,5,3,7,
2/1,8,7,6,5/4,3,2,1,8-4[8:1]/7-3[8:1],,6/1,,8b/7b,,,,
2-5[8:1]/1-5[8:1],,8/3,,2b/1b,,,,8-4[8:1],,7/1,,8b,,,,
2-6[8:1],,3/1,,2b,,,,
4>1[8:1]*<7[8:1],,,,4b,,,,
8x,,1,7,2,6,3,5,2,8,3,7,4,6,5,7,3,1,3,1,2,8,2,8,
1,7,1,7,4,,6,,3b/5bpp8b[8:3],,2bpp5[8:3]/5b,,,,,,,,,,,,,,
{24}3/8,7,6,5,4,3,2,1,8,4,3,2,1,8,7,6,5,4,3,2,1x/8x,,
2bx/7bx,3bx/6bx,
{4}4bxqq1>7qq4qq1[8:22]/5bx,,,,,,,,,,,,,,,,,,,,,,,,
E
