&title=光放て!
&artist=柳麻美
&first=0.04
&des=可以色色
&lv_5=13+
&lv_7=蔵
&inote_5=(174){4},,
{16},,4/5,,2/7,,,,
{8}7-3[8:1],7,2,2,1-4[8:1],1,5,5,
{8}6-1[8:1],6,3,3,2-5[8:1],2,8-4[8:1],8,
{8}3,3,2-6[8:1],2,7,7,8-5[8:1],8,
{8}2,2,1>5[4:1],1,5<1[4:1],,1,,
{8}7-4[8:1],7,2,2,1-5[8:1],1,6-2[8:1],6,
{8}3,3,4/8,4/8,{16}3,7,3,7,1/5,,,,
{12}2h[16:3],,3h[16:3],,4,,{4}5pp4[2:1],,
{4}2,1>7[4:1],1/7,8,
{4}1h[4:1],8<2[4:1],8/2,1pp5[2:1],
{4}7,6<1[8:1],6,4,
{8}8/4,,7,5,6,4,3/5,,
{8}2,4,2>5[8:1],,1/2,,7,,
{8}2/6,,3,5,4,6,5/7,,
{16}7-3[8:1],3,7,3,7b,,,,{16},,,,,,,{32}2,3,
{4}4-1[2:3],,5,,
{4}7,,8,{16},,,{32}7,6,
{4}5-8[2:3],,4,,
{4}2,,1,{16},,,{32}2,3,
{4}4qq5[4:5],,6,6,
{4}7,,8,{16},,,{32}7,6,
{4}5pp4[4:4],,3,3,
{4}2h[8:3],,{8},1/5,1/5,{16},{32}2,3,
{8}4,,6,5,7,1,7/1,,
{8}2h[4:1],,,4,5>3[8:1],,5/6,{16},{32}7,6,
{8}5,,3,4,2,8,2/8,,
{8}7h[4:1],,5,4<6[8:1],3,2/4,1,{16},{32}2,3,
{8}4,,7,5h[8:1],6>3[8:1],8h[8:1],
{8},,1h[8:1],3,2,4h[8:1],1,2/6,4b/8b,,
{8}7<4[8:1],8,1,3q7[8:1],,2,1,{16},{32}2,3,
{8}4,7,5,8,1,4/5,7/2,,
{8}1>4[8:1],8,7,6p2[8:1],,7,8,,
{8}1-5[8:1],8-4[8:1],1,8,,1/8,,,
{8}2>5[8:1],1,8,6p2[8:1],,7,8,,
{2}2>5[8:1]/6<1[8:1],2p5[8:1]/6p1[8:1],
{8}8/4,,6,3v1[8:1],7v5[8:1],3,7,,
{32}2,3,4q5[16:7],,{8},6<3[4:1],,,,,,
{8}1b<6[8:1],,1/5,,4q8[8:1],3,2/4,,
{8}1p5[8:1],,1/2,,4>1[8:1],5,6/4,,
{8}7>3[6:1],,3,,4-1[8:1],5,4,7,
{8}8-5[8:1],1,8,3,4,5,7/2,,
{32}3,4,5,6,,,,,{8}7,1,8-4[8:1],2,4,{16},{32}3,2,
{8}1pp1[8:3],,5<8[8:1],,,,7/2,,
{6}8-5[8:1]/4,1,2,3-8[8:1]/7,4,5,
{6}6-3[8:1]/2,7,8,1-6[8:1]/5,2,3,
{8}4bp6[6:1],5,6,,7b>3[6:1],2,4,,
{8}4bqq8[4:1],1,7,,5,5,{16}1,8,1,8,
{32}1b,2,3,4,5,6,7,8,1,2,3,4,5,6,7,8,1qq4[4:1],2,3,4,5,6,7,8,
{8}1,,,,2-5[8:1]/6-2[8:1],,2<6[8:1]/6,,5,,
{32}4bq8[8:1],3,2,,{8},1/4,1<4[6:1],,1/2,2pp6[2:1],,
{8}4,5,6,7,8<2[16:3],,4h[4:1],,
{32}1b-5[8:1],8,7,6-1[32:5],,,,,{8}1V74[4:1],6,,,2>5[8:1],,
{32}1b/2b,8,7,6pp3[32:13],{8},4,,3>5[4:1],,4,,
{32}3bq7[8:1],2,1,8,{8},8>7[16:3],1,2,,3>8[8:1],,
{32}7b/3b-7[8:1],6,5,4,,,,,{8}8<5[8:1],,{32}8b/1b,2,3,4,{8},{16}5,4,6,3,
{8}8>3[8:1],,8/4,,5p1[8:1],6,7<4[8:1],,
{32}7b/8b,1,2,3p5[32:5],{8},5<3[5:1],,4,,5qq2[3:1],,
{8}7,,1qq6[3:1],,2,,4>1[8:1]*<7[8:1],,
{8}4,,8w4[8:1],,8,,2/6,,
{4}4<8[4:1],3,1,2/4,
{4}5>1[4:1],6,8,7/5,
{8}6q3[8:1],,2<4[6:1],,2,,8,,
{12}3,5,4,6,4,5,3,5,2,6,1,7,
{1}1b<4[4:6],
{1},
{32}6pp5[4:6],5,4qq6[16:23],
E
&inote_7=(174){4},,
{16},,3/6,,1/8,,,,
{8}7-3[8:1],7,2,2,1-4[8:1],1,5,5,
{8}6-1[8:1],6,3,3,2-5[8:1],2,8-4[8:1],8,
{8}3,3,2-6[8:1],2,7,7,8-5[8:1],8,
{8}2,2,1>5[4:1],1,5<1[4:1],,1,,
{8}7-4[8:1],7,2,2,1-5[8:1],1,6-2[8:1],6,
{8}3,3,4/8,4/8,{16}3,7,3,7,1/5,,,,
{12}2h[16:3],,3h[16:3],,4,,{4}5pp4[2:1],,
{4}2,1>7[4:1],1/7,8,
{4}1h[4:1],8<2[4:1],8/2,1pp5[2:1],
{4}7,6<1[8:1],6,4,
{8}8/4,,7,5,6,4,3/5,,
{8}2,4,2>5[8:1],,1/2,8,7,,
{8}2/6,,3,5,4,6,5/7,,
{16}7-3[8:1],3,7,3,7b,,,,{16},,,,,,,{32}2,3,
{4}4-1[2:3],,5,,
{4}7,,8,{16},,,{32}7,6,
{4}5-8[2:3],,4,,
{4}2,,1,{16},,,{32}2,3,
{4}4qq5[4:5],,6,6,
{4}7,,8,{16},,,{32}7,6,
{4}5pp4[4:4],,3,3,
{4}2h[8:3],,{8},1/5,1/5,{16},{32}2,3,
{8}4,,6,5,7,1,7/1,,
{8}2h[4:1],,,4,5>3[8:1],,5/6,{16},{32}7,6,
{8}5,,3,4,2,8,2/8,,
{8}7h[4:1],,5,4<6[8:1],3,2/4,1,{16},{32}2,3,
{8}4,,7,5h[8:1],6>3[8:1],8h[8:1],
{8},,1h[8:1],3,2,4h[8:1],1,2/6,4b/8b,,
{8}7<4[8:1],8,1,3q7[8:1],,2,1,{16},{32}2,3,
{8}4,7,5,8,1,4/5,7/2,,
{8}1>4[8:1],8,7,6p2[8:1],,7,8,,
{8}1-5[8:1],8-4[8:1],1,8,,1/8,,,
{8}2>5[8:1],1,8,6p2[8:1],,7,8,,
{2}2>5[8:1]/6<1[8:1],2p5[8:1]/6p1[8:1],
{8}8/4,,6,3v1[8:1],7v5[8:1],3,7,,
{32}2,3,4q5[16:7],,{8},6<3[4:1],,,,,,
{8}1b<6[8:1],,1/5,,4q8[8:1],3,2/4,,
{8}1p5[8:1],,1/2,,4>1[8:1],5,6/4,,
{8}7>3[6:1],,3,,4-1[8:1],5,4,7,
{8}8-5[8:1],1,8,3,4,5,7/2,,
{32}3,4,5,6,,,,,{8}7,1,8-4[8:1],2,4,{16},{32}5/3,6/2,
{8}7/1pp1[8:3],,8<5[8:1],,,,6/2,,
{6}8-5[8:1]/4,1,2,3-8[8:1]/7,4,5,
{6}6-3[8:1]/2,7,8,1-6[8:1]/5,2,3,
{8}4bp6[6:1],5,6,,7b>3[6:1],2,4,,
{8}4bqq8[4:1],1,7,,5,5,{16}1,8,1,8,
{32}1b,2,3,4,5,6,7,8,1,2,3,4,5,6,7,8,1qq4[4:1],2,3,4,5,6,7,8,
{8}1,,,,2-5[8:1]/6-2[8:1],,2<6[8:1]/6,,5,,
{32}4bq8[8:1],3,2,,{8},1/4,3<7[8:1],,2,
{8}8qq4[8:3],,1,1,3,5,5>2[8:1],,2,,
{32}1b-5[8:1],8,7,6-1[32:5],,,,,{8}1V74[4:1],6,,,2>5[8:1],,
{32}1b/2b,8,7,6pp3[32:13],{8},4,,3>5[4:1],,4,,
{32}3bq7[8:1],2,1,8,{8},8>7[16:3],1,2,,3>8[8:1],,
{32}7b/3b-7[8:1],6,5,4,,,,,{8}8<5[8:1],,{32}8b/1b,2,3,4,{8},{16}5,4,6,3,
{8}8>3[8:1],,8/4,,5p1[8:1],6,7<4[8:1],,
{32}7b/8b,1,2,3p6[32:5],{8},6<3[5:1],,3,,5qq1[3:1],,
{8}7,,8qq3[3:1],,2,,5>2[8:1],,
{32}1,8,7,6,,,,,{8}1-4[8:1]/5-8[8:1],,1/5,,2/6,,
{4}4<8[4:1],3,1,2/4,
{4}5>1[4:1],6,8,7/5,
{8}6q3[8:1],,2<4[6:1],,2,,8,,
{12}3,5,4,6,4,5,3,5,2,6,1,7,
{1}1b<4[4:6],
{1},
{32}6pp5[4:6],5,4qq6[16:23],
E
