&title=ウニ
&artist=Adeliae feat. 雨衣
&first=0.35
&des=✹
&lv_5=13
&inote_5=(186)
{4},,,,
{16},,,,
,,,,
,,,,
,,,,
{16},,,,
,,,,
,,,,
,,,,
{16},,,,
,,,,
,,,,
,,,,
{16},,,,
,,,,
,,,,
,,,,
{16},,,,
,,,,
,,,,
,,,,
{16},,,,
,,,,
,,,,
,,,,
{16},,,,
,,,,
,,,,
,,,,
{16},,,,
,,,,
,,,,
,,,,
{16}4,,,,
4,,,,
4,,,,
4,,,,
{16}4,,,,
4,,,,
4,,,,
4,,B7/B6,,
{16}B2/B3,,,,
5,,,,
5,,,,
5,,,,
{16}5,,,,
5,,,,
{32}A1,D2,A2,D3,
A3,D4,A4,D5,
{16}A5,,B7/B6,,
{16}B2/B3,,,,
5,,E4,,
5,,E3,,
5,,E2,,
{16}5,,,,
4,,E6,,
4,,E7,,
4,,B7/B6,,
{16}B2/B3,,,,
5,,E2,,
5,,E3,,
5,,E4,,
{16}5^8[8:1],,,,
5^2[8:1],,,,
,,,,
,,,,
{16}5w1[4:2],,,,
,,,,
,,,,
,,,,
{16}6^5pp7[4:2]/4^5qq3[4:2],,,,
,,,,
,,,,
,,,,
{16}5v3-1[4:2]*v7-1[4:2],,,,
,,,,
,,,,
,,,,
{16}1,,,,
1,,,,
1,,,,
1,,,,
{16}7>3v5[4:3],,,,
5,,,,
5,,,,
5,,,,
{16}4v2<6[4:3],,,,
6,,,,
6,,,,
6,,,,
{16}5<4[4:3],,,,
4,,,,
4,,,,
4,,,,
{16}1h[8:1],,,,
1h[8:1],,,,
1h[8:1],,,,
1h[8:1],,,,
{16}7h[8:1],,8,,
7h[8:1],,1,,
7h[8:1],,2,,
7h[8:1],,,,
{16}3h[8:1],,8,,
3h[8:1],,7,,
3h[8:1],,6,,
3h[8:1],,,,
{16}5h[8:1],,4,,
5h[8:1],,3,,
5h[8:1],,2,,
5h[8:1],,,,
{16}1h[8:1]/5h[8:1],,,,
1h[8:1]/5h[8:1],,,,
1h[8:1]/5h[8:1],,,,
1h[8:1]/5h[8:1],,,,
{16}7h[8:1]/8h[8:1],,,,
6h[8:1]/5h[8:1],,,,
4h[8:1]/3h[8:1],,,,
1h[8:1]/2h[8:1],,,,
{16}2h[8:1]/1h[8:1],,,,
3h[8:1]/4h[8:1],,,,
5h[8:1]/6h[8:1],,,,
8h[8:1]/7h[8:1],,,,
{16}7-5[8:1]/8,,,,
1-3[8:1]/7,,,,
1/8-4[8:1],,,,
8/2-6[8:1],,,,
{16}4x-8[8:1]/2,,,,
4,,,,
{32}A1,D2,A2,D3,
A3,D4,A4,D5,
{16}A5,,,,
{16}6h[8:3],,5,,
4,,3,,
,,2h[8:2],,
4,,5,,
{16},,7h[8:2],,
5,,4,,
3h[8:3],,{24}E8,E7,E6,
{16}E5,,,,
{16}3h[8:3],,4,,
5,,6,,
,,7h[8:2],,
8,,1,,
{16},,2h[8:2],,
4,,5,,
6,5,7,5,
6,,,,
{16}4h[1:4]/5-7[8:1],,,,
,,,,
5-7[8:1],,,,
,,,,
{16}5-7[8:1],,,,
,,,,
5-7[8:1],,,,
,,,,
{16}5,,,,
7,,,,
5,,,,
7,,,,
{16}5,,,,
7,,,,
5,,,,
7,,,,
{16}5,,,,
57,,,,
45,,,,
57,,,,
{16}45,,,,
57,,,,
45,,,,
57,,,,
{16}4qq1[4:5]/5pp8[4:5],,,,
,,,,
,,,,
,,,,
{16},,,,
,,,,
,,,,
C,,,,
{16}1xb-5[8:1]/7xb,,,,
8-6[8:1],,8,,
2-4[8:1],,2,,
1-5[8:1],,,,
{16}3qq4b[16:7],,,,
3V51b[16:3]/E7/B7/E8,,,,
,,,,
C,,,,
{16}7-2[8:1]/1,,,,
3-6[8:1],,3,,
7-2[8:1],,7,,
3-6[8:1],,,,
{16}7qq1[16:7],,,,
7-2-5[16:3]/B3/E3/E4,,,,
,,,,
C,,,,
{16}3s7s3[8:6]/7,,,,
A1,,A8,,
A7,,A6,,
A5,,,,
{16}6pp5b[16:7],,,,
6V48b[16:3]/E3/B2/E2,,,,
,,,,
,,1x,,
{16}2x>6[8:2],,,,
,,8x,,
1xq7[8:2],,,,
,,7xb,,
{16}8xb>4pp4b[16:9]*<4qq4b[16:9],,,,
,,,,
,,,,
,,,,
{16}5xb-7[8:1]/3xb,,,,
52,,1,,
8-4[8:1],,1,,
82,,,,
{16}3qq4b[16:7]/5,,,,
4V68b[16:3]/3,,,,
,,,,
C,,,,
{16}5-1[8:1]/1,,,,
57,,6,,
2-4[8:1],,5,,
26,,,,
{16}7qq2[16:7]/5,,,,
8-3-6[16:3]/7,,,,
,,,,
C,,,,
{16}8^5[8:1]/4,,,,
82,,1,,
8^3[8:1],,4,,
85,,,,
{16}6pp5b[16:7]/4,,,,
5V31b[16:3]/6,,,,
,,,,
,,8x,,
{16}7xV53[8:2],,,,
,,1x,,
8xv2[8:2],,,,
,,2x,,
{16}1xV35[8:2]*V75[8:2],,,,
,,,,
,,,,
4,5,4,5,
{16}3h[8:3],,4,,
5,,6,,
,,7h[8:2],,
5,,4,,
{16},,2h[8:2],,
4,,5,,
6h[8:3],,{24}E2,E3,E4,
{16}E5,,,,
{16}6h[8:3],,5,,
4,,3,,
,,2h[8:2],,
1,,8,,
{16},,7h[8:2],,
5,,4,,
3,4,2,4,
3,,,,
{16}6h[8:3],,5,,
4,,3,,
,,2h[8:2],,
4,,5,,
{16},,7h[8:2],,
5,,4,,
3h[8:3],,{24}E8,E7,E6,
{16}E5,,,,
{16}3h[8:3],,4,,
5,,6,,
,,7h[8:2],,
8,,1,,
{16},,2h[8:2],,
4,,5,,
6h[8:3],,{24}E2,E3,E4,
{16}E5,,,,
{16}5v4[4:1]/6,,,,
45,,,,
3,,,,
,,,,
{16}4v5[4:1]/3,,,,
54,,,,
6,,,,
,,,,
{16}5v4[4:1]/6,,,,
45,,,,
3,,,,
,,,,
{16}4v5[4:1]/3,,,,
54,,,,
6,,,,
,,,,
{16}5v4[4:1]/7,,,,
4-2[8:1]/5,,,,
2,,,,
,,,,
{16}4v5[4:1]/2,,,,
5-7[8:1]/4,,,,
7,,,,
,,,,
{16}5v4[4:1]/7,,,,
4-2[8:1]/5,,,,
2,,,,
1h[4:1],,,,
{12}E5,E3,E6,
E4,E7,E5,
8h[4:2],,,
,,,
{16}1^3[8:1],,,,
4,,,,
7^5[8:1],,,,
4,,,,
{16}2^4[8:1],,,,
5,,,,
8^6[8:1],,,,
5,,,,
{16}3^5[8:1],,,,
6,,,,
7^5[8:1],,,,
4,,,,
{16}2^4[8:1],,,,
5,,,,
6^4[8:1],,,,
3,,,,
{16}1^3[8:1],,,,
4,,,,
7^5[8:1],,,,
4,,,,
{12}2x^4[8:1],,5x,
,6x,,
7x^5[8:1],,4x,
,3x,,
{16}2^8[8:1],,,,
4,,,,
6^8[8:1],,,,
4,,,,
{16}2,,4,5,
6<5b[8:3],,2,3,
4,,,,
,,,,
{16}1s5[4:2],,,,
,,,,
,,,,
,,8,7,
{16}6z2[4:2],,,,
,,,,
,,,,
1^4[4:1],,1,,
{16},,,,
6^1[4:1],,6,,
,,,,
3^6[4:1],,3,,
{16},,,,
7p2[4:1],,7,,
,,,,
,,,,
{16}1-3-8-4-7-5[8:5],,1,,
,,,,
,,,,
,,,,
{16}8-3-6-1[8:3],,8,,
,,,,
,,,,
,,3^5[8:1],,
{16}4h[16:6],,,,
,,6^4[8:1],,
5h[16:6],,,,
,,3>5p4[8:5],,
{16}4h[8:4],,,,
,,,,
,,,,
,,,,
{12}E7,E6,E5,
E3,E2,E1,
E7,E6,E5,
E3,E2,E1,
{12}E8,E7,E6,
E4,E3,E2,
E8,E7,E6,
E4,E3,E2,
{12}E3,E4,E5,
E7,E8,E1,
E3,E4,E5,
E7,E8,E1,
{12}E2,E3,E4,
E6,E7,E8,
E2,E3,E4,
E6,E7,E8,
{16}1x,,1x,2x,
3xpp6[8:3],,,,
,,,,
,,,,
{16}8x,,8x,7x,
6xqq3[8:3],,,,
,,,,
,,,,
{16}1-7[8:1],,,,
4-8[8:1],,,,
3-1[8:1],,,,
6-2[8:1],,,,
{16}5-3[8:1],,,,
8-4[8:1],,,,
2-6[8:1],,,,
5,,,,
{16}4h[1:4]/5-7[8:1],,,,
,,,,
5-7[8:1],,,,
,,,,
{16}5-7[8:1],,,,
,,,,
5-7[8:1],,,,
,,,,
{16}5,,,,
7,,,,
5,,,,
7,,,,
{16}5h[4:2],,,,
,,,,
,6x,7x,,
,,,,
{16}5,,,,
57,,,,
45,,,,
57,,,,
{16}45,,,,
57,,,,
45,,,,
57,,,,
{16}4qq1[4:5]/5pp8[4:5],,,,
,,,,
,,,,
,,,,
{16},,,,
,,,,
,,,,
,,,,
{16}Cfh[4:6],,,,
,,,,
,,,,
,,,,
{16},,,,
,,,,
,,,,
,,,,
{16}1x>5b[4:1]/7x,,,,
5<1b[4:1],,5,,
1>5b[4:1],,1,,
5,,,,
{16}7qq1[16:7],,,,
7-2-5[16:3]/E3/B3/E4,,,,
,,,,
C,,,,
{16}3-8[8:1]/1,,,,
7-4[8:1],,7,,
2-5[8:1],,2,,
6-1[8:1],,,,
{16}3qq4b[16:7],,,,
3-5-1b[16:3]/E7/B7/E8,,,,
,,,,
,,8x,7x,
{16}6x>2[8:2],,,,
,,1x,8x,
7xp1[8:2],,,,
,,1xb,,
{16}8xb<4qq4b[16:9]*>4pp4b[16:9],,,,
,,,,
,,,,
,,,,
{16}5xb-7[8:1]/3xb,,,1,
5,,3,,
8-4[8:1],,4,,
28,,,,
{16}3qq4-6b[16:7]/5,,,4V68-2b[8:2],
3,,,,
,,,,
B3/B7,,,,
{16}5-1[8:1]/1,,,7,
5,,6,,
2-4[8:1],,4,,
62,,,,
{16}7qq6<2[16:7]/5,,,8>6[8:2],
7,,,,
,,,,
B2/B6,,,,
{16}8^5[8:1]/4,,,3,
8,,2,,
8^3[8:1],,5,,
87,,,,
{16}6pp5-3b[16:7]/4,,,5V31-7b[8:2],
6,,,,
,,,,
,,7x,,
{16}7xs3[8:2],,,,
,,7x,,
7xs3[8:2],,,,
,,1x,,
{16}1xw5[16:3],,,,
,,,,
,,4,6,
3,7,2,8,
{16}1-5[8:1],,6,,
7,,8,,
,,7-4[8:1],,
8,,1,,
{16},,2-5[8:1],,
1,,8,,
7^4[8:1],,{24}4,3,2,
{16}1,,,,
{16}5-1[8:1],,2,,
3,,4,,
,,3-8[8:1],,
4,,5,,
{16},,6-3[8:1],,
8,,8,,
1,5,3,7,
C,,,,
{16}8-4[8:1],,3,,
2,,1,,
,,2-5[8:1],,
1,,8,,
{16},,7-4[8:1],,
8,,1,,
2^5[8:1],,{24}5,6,7,
{16}8,,,,
{16}4-8[8:1],,7,,
6,,5,,
,,6-1[8:1],,
5,,4,,
{16},,3-6[8:1],,
1,,1,,
8x,4x,7x,3x,
6x,2x,5x,1x,
{16}4x<8[16:3],,,,
1,,3,,
5>1[16:3],,,,
8,,6,,
{16}4V68[16:3],,,,
1,,3,,
5V31[16:3],,,,
,,B7/B6,,
{16}B2/B3,,,,
,,,,
,,,,
,,,,
{16},,,,
,,,,
,,,,
,,,,
