&title=八芒星ダンス
&artist=Ave Mujica
&first=0
&des=MYOU
&lv_5=14
&inote_5=(114)
{1},
{32},,,,,,,,,,,,,,5h[16:1],,4,3,2,1,8,7,6,5,A4f,,,,,,,,
{16}1b,1,4,3,5h[8:1],,1,1,4pp3[4:1],3,5,,34,,,,
{16},,1,1,4>1[8:1],3,,5,4b<7[8:1],,,,2b/4b,,,3,
{16}8,8,5,6,4h[8:1],,8,8,5<8[8:1],6,4,,3/5>2[8:1],,,,
{16}57,,8,8,5pp4[4:1],6,,4,5b,,,,2,2,4,3,
{32}8xb>3[8:1],7x,6x,5xh[32:5],,,,,{16}8,,,,4/8<5[8:1],,7,3,8,,2,,
{32}1x<6[8:1],2x,3x,4x,{16}8,3,1>4[8:1],,2,7,1b,,8,,2b,2,4,3,
{32}5x>2[8:1],6x,7x,8xh[32:5],,,,,{16}5,,6,,1/5<8[8:1],,6,2,5,,{32}4x,3x,2x,1x,
{16}7,7h[16:2],,1,{32}1x,2x,3x,4x,{16}6xh[8:1]/5x,,8,8,8,8,1b/7b,,,,
{16}7,5,6,,56,,6,5,7x,,A1/E2/A2,,A5/E6/A6,,2,4,
{16}3,,4,3,4,2,,1,8x/2xh[4:1],,,,4x,4x,3x,3x,
{16}7,5,6,,56,,6,5,8x,,A1/E2/A2,,A5/E6/A6,,2,4,
{16}3,,4,3,4,1x,,{32}1,8,{16}1b<6[8:1],,,,1b/2b,,,4x,
{16}6-8[32:3],5,7,,1x,,A3/E3/A2,,A6/E6/A5,,2,4,3x,,5/4h[8:1],,
{16}6-8[32:3],,7,5,6x,,4,,12,,2,4,3x,,56,,
{16}7-4[8:1],8,6,,1x,,A3/E3/A2,,A8/E8/A7,,3,1,2x,,48,,
{16}7-4[8:1],8x,6,8,7x,,2,1,{32}3xb,4,5,6,7,8,1xb/6xb,5,4,3,2,1,3xb/8xhb[8:1],,,,
{16}1,,3x/4x,2x/5x,,3x/4x,2x/5x,,3,4x,2x/5x,3h[16:1],4h[16:1],5h[16:1],6h[16:1],,
{16}7/8-5[64:7],,5x/6x,,1x/8x,,{32}1,2,3,4,{16}6h[16:1],5h[16:1],4h[16:1],3h[16:1],1b,,7x/8x,7x/8x,6,,1x/2x,,5,3,1x/8x,,{32}6,5,6,,7x/8x,,,,3,4,3,,1x/2x,,,,
{32}3x,4,3,,5x,4,5,,2x,4,2,,6x,4,6,,{32}3x,4,3,4,3,4,3,4,3xb,,5xb,,1xb,,7xbw3b[16:3],,
{2},{24}2,3,4,7,6,5,A4f/3xh[4:1],,,,,,
{16}1<6b[64:7],1,4,8,3b,,4>1b[64:7],4,5,3,6b,,5-8[64:7],,37,,
{16}1-4[64:7],,2,8,1,,5,,1,1,8,2,5h[8:1],,4,6,
{16}5p1b[64:7],5,8,4,7b,,8p4b[64:7],8,1,7,2b,,1-4[64:7],,37,,
{16}5-8[64:7],,6,4,5,,1,,{48}1x,2x,3x,4x,5x,6x,7x,8x,1x,2x,3x,4x,{16}5xb,7xb,2xb,4xb,
{16}8V24b[8:1],8,5,1,7b,,6v1b[64:7],6,5,7,4b,,5,,4x/8x,,
{16}6,5,8x/7xh[8:1],,4,5,8x/1xh[8:1],,4,3,2x/1xh[8:1],,4,5,8x/1xh[8:1],,
{48}8xb,7,6,5h[8:1],,,,,,7xb,6,5,4h[8:1],,,,,,8xb,,,,,,7xb/1xb,2,3,4h[8:1],,,,,,2xb,3,4,5h[8:1],,,,,,1xb-5[64:6],,,,,,
{16}37,,15,,{32}3x/7x,2x/6x,1x/5x,8x/4x,3x,2x,1x,8x,
{16}3xhb[64:11]/7xhb[64:11],,,{32}E3/B2,E7/B7,{4}E1/D1,
{1}8b-5pp6b[1:1]/1b-4qq3b[1:1],
{4},,5h[8:1]/6h[8:1],4h[8:1]/5h[8:1],
{1}4/3pp6[1:1],
{4},,5h[8:1]/6h[8:1],{32}7,6,5,4,{16}3,3,
{16}5,4,6,5,7h[8:1],,5,6h[8:1],,4,5h[8:1],,1x,,,,
{16}5,3,7,5,8h[8:1],,4,6h[8:1],,2,4h[8:1],,3,3,4,5,
{8}6hb[4:1],,{16}2,2,4,5,7b-4b[16:1],,,7b/1b-5b[16:1],,,1b,,
{16}8b,,2x/6x,,4x/8x,,7,7,5,4,3,7,7,5,4,2,
{16}8>3[8:1],,7h[8:1],,8,,6,6,8q4[8:1],,7h[8:1],,8,,6,6,
{16}8q5[8:1],,7h[8:1],,8,,6,6,8<1[4:1],,7h[8:1],,8b,,,,
{16}5p1[8:1],,6h[8:1],,5,,7,7,5p8[8:1],,6h[8:1],,5,,7b>6b[4:1],,
{16},,4x,,4x,,2,2,4,5,6,2,2,4,5,7,
{32}1x,2x,{16}3xh[8:1],,4,25,,78,,{32}6x/2x,3x,{16}4xh[8:1],,5,36,,18,,
{32}7x/3x,6x,{16}5xh[8:1],,4,37,,12,,{32}4xv5V71[16:4]/8x,7x,{16}6x,,3h[8:1],,,,,
{16}3,3,7,5,6,6,1,4,2,2,8,4,6,6,8,4,
{32}2b,3,4,5,6,7,8,1,5b,4,3,2,1,8,7,6,{16}3b,3,6,6,5bpp4[4:1],5,4,4,
{16}2hb[4:1],,,,,1,4,3,6b,,,7pp4[16:5]/5,,,,,
{16}3hb[4:1],,,,,2,5,4,8b,5b,6b,{64}A1f,D2,A2,D3,A3,D4,A4,D5,A5,D6,A6,D7,A7,,,,,,,,
{16}3b,6,5,8,2b,7,4,5,1b,4,3,6,2b,8,5,6,
{32}3b,4,3,,5b,4,5,,2b,4,2,,6b,4,6,,3,4,3,4,3,4,3b,4,3,4,3,,2xb/5xbv8-6[16:6],,2xbv5-3b[16:5]/5xb,,
{2},{24},,,2x,5x,4x,7xh[8:1],,,8,,,
{12}15,15,15,26,37,48,{24}1b/5hb[8:1],,,7x,4x,5x,2xh[8:1],,,1,,,
{16}4b/8b,,{32}6,5,6,4,5,4,5,3,4x,,2x,,7x,,5x,,6hb[8:1],,,,5b<4b[8:3],,7b,,2b,,4b,,
{2}B3f,{32}6,5,6,5,6,5,6,,3,4,3,4,3,4,3,,
{2}2h[16:10]/5h[16:9],{16},,6,4,{32}8,7,6,5,1,2,3,4,
{16}57,7,7,24,2,2,1/8h[8:1],,{48}1x,2x,3x,4x,5x,6x,7x,8x,1x,2x,3x,4x,{16}E5/A5/D5f/A6/D7/D6/E6/E7/B5/B6,,,,{16}8p4b[8:1],8,3,7,1b,,2>6b[8:1],2,5,1,7b,,8x,,56,,
{16}7x/8xh[8:1],,6,5,8xh[8:1]/1x,,4,5,2xh[8:1]/1x,,4,3,8xh[8:1]/1x,,5,,
{48}7xb/1xb,6,5,4h[8:1],,,,,,6xb,5,4,3h[8:1],,,,,,8xb,,,,,,8xb/2xb,3,4,5h[8:1],,,,,,3xb,4,5,6h[8:1],,,,,,1xb-5[64:6],,,,,,
{16}37,,15,,{32}3x/7x,2x/6x,1x/5x,8x/4x,3x,2x,1x,8x,
{16}3xhb[64:11]/7xhb[64:11],,,{32}E6/D6/E2/D2,E5/D5/E1/D1,{4}E4/D4/E8/D8,
{16}1b,4,3,8,5h[8:1],,7,3,5-1[8:1],1,4,,25,,4xhb[128:1],,
{16}6xhb[128:1],,1,5,4<7[8:1],6,,3,4b>1[8:1],,,,6b/4b,,5,5,
{16}2,4,3,7,5h[8:1],,8,4,6-2[8:1],2,4,,3/6,,5xhb[128:1],,
{16}7xhb[128:1],,1,6,5pp4[4:1],8,,4,5b,,,,2,2,5,4,
{32}8xb>4[8:1]/3xb,7x/2x,6x/1x,5xh[32:5],,,,,{16}8,,7xhb[128:1],,4xhb[128:1]/8xb<4[8:1],,7,2,8,,1,,
{32}1xb<5[8:1]/5xhb[128:1],2x,3x,4x,{16}8,3,1>5[8:1],,2,6,1b,,8,,2b,2,4,1,
{32}5x>1[8:1]/2x,6x/3x,7x/4x,8xh[32:5],,,,,
{16}5,,6xhb[128:1],,8xhb[128:1]/4xb<8[8:1],,6,3,4,1,{32}1x,2x,3x,4x,{16}7x/5x,7h[16:2],,4,{32}4x,3x,2x,1x,{16}6xh[8:1]/8x,,8xb,6xb,3xb,1xb,D5/E5/B4f/E4/D4,D1/E1/B8f/E8/D8,D2/E2/B2f/E3/D3,D6/E6/B6f/E7/D7,
