&title=創 -汝ら新世界へ歩む者なり-
&artist=BlackY VS Yooh VS siromaru VS xi VS モリモリあつし
&first=0.33
&des=RhoGaming VS "M"ack underground VS P4P1N002 VS Sudden&death VS Levelast the NULL
&demo_seek=42.8
&lv_6=14+
&inote_6=(219)
(219)
{16}
4z8<6-2>3[4:5],,,,,,,,5h[2:1],,,,,,,,
,,,,,,,,,,,,,,,,
8-6<7-3>2-5[4:5],,,,,,,,1h[2:1],,,,,,,,
,,,,,,,,,,,,,,,,
2x-5[8:1],,,,2x/6x-1[8:1],,,,3x-8[8:1]/6x,,,,3x/7x-4[8:1],,,,
5x-2[8:1]/7x,,,,5x/6x-1[8:1],,,,6x,,,,C,,,,
{24}
2bxh,3,4,5,,,7bxh,6,5,4,,,1bxh,2,3,4,,,8bxh,7,6,5,,,
3bxh,2,1,8,,,6bxh,7,8,1,,,3bxh,2,1,8,,,5bxh,6,7,8,,,
{16}
2,,2h[8:1],,4,,4h[8:1],,5,,5h[8:1],,7,,7h[8:1],,
3,,3h[8:1],,1,,1h[8:1],,8,,8h[8:1],,6,,6h[8:1],,
1h,5,1h,5,1h,5,2h,4,2h,4,2h,4,3V14V62-7V51>1b[4:7],3,3h,3,
3x,3xh[16:15],,,,,,,,,,,,,,,
,,,,,,,,1xw5[8:1],,,,,,,,
Cf,,,,5/6,,5x-3[8:1]/6x-3[8:1],,,,5x-8[8:1]/6x-8[8:1],,,,5x/6x,,
,,4x-8[8:1]/5x-1[8:1],,3x/6x,,4x/5x,,,,2-5[8:1],,7-4[8:1],,2,,
7,,,,1/2,,1x-6[8:1]/2x-7[8:1],,,,1x/2x,,,,B4,,
{24}
,,,8x,7x,6x,5x,4x,3x,2x,1x/5xh,4xh/8x,3xh/7x,2xh/6x,1xh/5x,,,,C,,,,,,
{16}
2h[4:1]/4h[4:1],,,,,,6-2[8:1]/8,,,,6/8-4[8:1],,,,6/8,,
,,7,,5xh[4:1]/7h[4:1],,,,,,,,2>5[8:1],1,2,1,
2,,,,7<4[8:1],8,7,8,7,,,,3-7[8:1],3h,3,3h,
3,,,,6-2[8:1],6h,6,6h,6,,,,,,,,
7/8,,7/8,,1/8,,1/8,,1/2,,1/2,,2/3,,2/3,,
,,3x-8[292#8:1],,,3x/7x-4[292#8:1],,,3x-6[292#8:1]/7x,,,3x/7xp4[292#8:4],,,7x/1hx[14:5],,,,,,Cf,,,,
2,1,2,1,8,7,8,,1bhx[8:1],,,1b/B6/E6,,1b/B3/E4,,1bhx[8:1],,,,1b/E5,,1b,,
{32}8-5[242#8:1]*z4[242#8:1],7,6,,,,,8xb,,,,,,,,,{16},7x,7x,7x,5,4,5,4,
{24}5h[2:1],,3bx,,2bx,,1b,,8b,,7b,,6b,,{16}5x/4x,,,8q1[180#8:1]/3,,,16,,8x,,,Cf,,,,{24},
{16}3,4,5,6,74,5,6,7,{24}8bx/4bx,,8b/4b,,8b/4b,,7bx/3bx,,7b/3b,,7b/3b,,
{16}62,,,1<6[252#8:1]/5>2[252#8:1],,,1-5[252#8:1]/5-1[252#8:1],,,,Cf,,,,
E7/E3,,,,E8/A8,E2/A2,E6/A6,E4/A4,,,2x/6x,,3x/7x,,
{24}4x/8x,1,2,3,4,5,{16}6bh[8:1]/7bh[8:1],,,1bh[8:1]/2bh[8:1],,,{128}3x-7[8:1],4x-8[8:1],,,,,,,{16},,,A4/E4/D4f/A3,,,,,,
{16}6b,5,4,3,2/5,1,8,7,6x/1b,2,3,4,58,6,7,8,1x/5b,6,7,8,14,2,3,4,5h[4:1],,,2x>5[8:1],8,2,7,2,6,7,8,1,2,3,4,5,
{24}26,37,48,51,6,7,8,1,2/5,4,3,2,1,8b-5[317#8:1]/4b-1[317#8:1],,,,8b/4b,,,,7bs3[8:1],,,,
{16}Ch[6:1],,,,,,2x,1x,{16}8x,5,8,4,8,5,8,4,7x,4,8,4,1,4,2,4,{32}3x,,,,,6x-8-5[6:1]b/4x-2-5[6:1]b,,,,,1x,,,,,,,,
{16}E6/B5f/E5/A5,,,,{64}A7,D7,A6,D6,A5,D5,A4,,{16},,2,3,2,3,2,3,
{24}2x,1,8,7,6,5,{32}4x/2x,1,8,7,6,5,4,3,2,1,8,{20}7x,6,7,6,7,,,,
{32},
{16}
1-5[8:1]/2-4[8:1],,,,2<7[8:1],,,,6-4-8[4:1],,,,1,,2,,3,,,,
8-4[8:1]/7-5[8:1],,,,7>2[8:1],,,,3-5v8[4:1],,,,8,,7,,6,,,,
{24}
8xh,2xh,8xh,2xh,8xh,2xh,7,1,7,1,7,1,
{16}
7-3[8:1],,2,,7/4-8[8:1],,4,,4/6-2[8:1],,6,,6,,,,
1<7q4[4:1],,,,7,,6,,5-8[8:1],,,,5b,,,,
7-2p5[4:1],,,,2,,3,,4-1[8:1],,,,4b,,,,
1,2,1,2,8,3,7,4,6,5,6,5,7,8,6,1,
{24}
5,,,1x,2x,3x,8-4[16:1],,,1x,2x,3x,8-5[16:1],,,1x,2x,3x,8<6[16:1],,,1x,2x,3x,8b,,,,,,
{16}
3-5-1[4:1],,,,1-3[8:1],,8,,7>2[8:1],,,,
7-5[8:1]/4-2[8:1],,,,4/7-1-5[4:1],,,,1,,2,,3,,,,1,,
1-4b[8:1]/8b,,,,6-3b[8:1]/1b,,,,2-7b[8:1]/6b,,,,2b/5-8b[8:1],,,,5/1,,1b,,,,
{32}
1x-5[8:1]/2x-6[8:1],D1/D3,A8/A3,D8/D4,A7/A4,D7/D5,A6/A5,,
{16}
1b/2b,Cf,,,
84,,4,,51,,1,,63,,6,,73,,3,,65,,5,,74,,7,,83,,3,,12,,1,,
8-5[8:1]/3-6[8:1],,,,83,,,,1-6[8:1]/6<2[8:1],,,,16,,,,
3xh[8:1],,7xh[8:1],,1xh[8:1],,5xh[8:1],,
2xh[8:1],,6xh[8:1],,8xh[8:1],,4xh[8:1],,
1,2,1,2,1,2,1,2,1,2,1,2,1,2,1,2,
8,3,8,3,8,3,8,3,
{32}
8,7,6,5,4,3,2,1,8,7,6,5,4,3,2,1,8w4[8:1],,,,,,,,
{16}
B8,Cf,B5/B4/B3,,,,,,,,,,,,,,,,,,,,,,,,,,,,,,
4xh[8:1],,,,4xh[8:1],,,,4xh[8:1],,,,
{24}
4xh[2:1],A3,D3,A2,D2,A1,D1,A8,D8,A7,D7,A6,
{16}
D6/A5/E6f,,,,,,,,1w5b[31.3#64:1],,,,,,,,,,,,,,,,,,,,,,,,,,,,1b,,,,
78,,1/6v1[8:1],2,3,4,5/6b,,,,2,,31,,48,,
,,6/4-1[8:1],,,,54,,5-8[8:1],,,,52,,,,
34,,4/2-5[8:1],5,6,7,8-3[8:1]/2b,,,,8<5[8:1]/4>1[8:1],,,,84,,,,
1,,1-4[8:1]/8-5[8:1],,,,1b/8b,,,,
81,7,6,5,4,,1/3x>1[8:1],8,7,6,5/3x,,,,2/4x>2[8:1],1,8,7,6/4x,,,,
7,8,7,8,7,8,7,8,7,8,7,,1x/6x,,2-8-4[4:1]/5x,,,,5/2,,
5-1[8:1],,,,4x-8[8:1]/5-7[8:1],,,,4b-6-2[4:1]/5b,,,,1,,8,,7-1-5[4:1],,,,4,,4,,,,
1-5[8:1],,8x,8x,1-4[8:1],,6x,6x,1>3[8:1],,8x,8x,1b,,6x,6x,
8-4[8:1],,1x,1x,8-5[8:1],,3x,3x,8<6[8:1],,1x,1x,8b,,3x,3x,
7-1-5[4:1]/4x,,,,4/7,,
4-8[8:1],,,,5x-1[8:1]/4-2[8:1],,,,5b-3-7[4:1]/4b,,,,8,,1,,2-8-4[4:1],,,,5,,5,,,,
18,,7,5,6,5,6,,2,4,3,4,3,,,,18,,7,5,6x,6,6,,2,4,3x,3,3,,,,
75,,,35,,,1/C,,75,,,35,,,1/Chf[4:1],,,,,,,,
1,7,1,7,1,7,1,7,1,7,
{24}
8-4[8:1],2h,8h,2h,8h,2h,8h,,,,,,
{24}
1x,1x,1x,1x,1x,1x,1x-5[8:1],1x,1x,1x,1x,1x,
{1}
1xb-7q6qq5[1:3]*>5[1:3]/Cf,,,,
{16}
1h[1:1]/8b-4z8b[1:1],,,,,,,,,,,,,,,,,,,,,,,,
{16}
Cf/B1/B2/B3/B4/B5/B6/B7/B8,,,,,,,,
{4}
3,3-8[8:1],3/5,5,
{8}
4/6,7,8/1,2,3,4,5/6,7,
{16}
8b/1b,2,3,4,5,6,7,8,1h[2:1]/5,4,3,2,,8,7,6,5b-1[8:1],,3x/4x,,6x/5bx,,
,,
{16}
2,3,4,5,1,8,7,6,5h[2:1]/1,2,3,4,,,,,2>7b[2:1],,,,2h[1:1],,,,,,,,,,,,,,,,5,,,,
{8}
3/7,,6h[1:1]/1>3q5[1:1],1,
{2}
,,
{8}
,,8b,,
{16}
1h,1h,6h,6h,3h,3h,7h,7h,2h,2h,5h,5h,1h,1h,7h,7h,
{16}
3h,4h,2h,6h,5h,7h,3h,4h,2h,6h,5h,7h,2h,8h,6h,,4bw8b[55#8:1],,,,2,,,,5,,,,3,,,,4b,,,,,,,,,,,,,,,,
{8}
8,,1,,7/3,,2,,6,2,4w8[4:1],3,4b,,,,
{8}
1/3h[4:1],,8,,8h[4:1]/7,,
{16}
6,5,4/1,2,3/7,6,5,4,2,3,4,5,8,7,6,5,1,2,3,4,
{8}
5/6,7/6,8/7,1/8,2/1,2/3,3/4,5/4,
{16}
6/5,7,8,4,3,2,5,6,7/3,2,1,8,4,5,6,7,8b-4>2-6<8b[16:20]/4bx,,,,
{4}
,,,,,2b,,2h[1:1]/7-1-5[2:1],,,,
{8}
4,3-1[8:1],4,3,5hb[4:1],,2xb,,
{8}
1-5[8:1],2,1/8-4[8:1],7,8/2b-6[8:1],2,7-3[8:1],7,4-8[8:1],4,5-1[8:1],5,2-6[8:1],2,7,7h[2:1],
{16}
A1/B1,D2/E2,A2/B2,D3/E3,A3,D4,A4,D5,A5,D6,A6,D7,A7,D8,A8,D1,A1f/E2/D2/5hb[2:1],,,,
{4}
,
{4}
3hb[2:1]/B7f/E8/E7/A7,,
{8}
7-2[8:1],7,3-6[8:1],3,7-4[8:1],7,2-5[8:1],2,
{8}
8h[16:1],8h[16:1],7h[16:1],7h[16:1],6h[16:1]/5h[16:1],4h[16:1]/5h[16:1],3-8b[8:1]/4,3/5,3/6,,
{24}
7,6,5,4,3,2,1,8,7,6,5,4,3,2,1,8,7,6,
{16}
5,4,3,2,1,8,7,6,5,4,3,2x,
{8}
1x,8x,
{16}
1x,8x,2,7,3,6,4h,5h,
{16}
4h,5h,4h,5h,4h,3,2,1,8,7,6,5,4,3,2,1,8bx-5b[16:1]/4bx-1b[16:1],1/5,2/6,3/7,4b/8b,
{16},,,1x-5[16:1]/7,,,,17,,6,,,,6h[8:1],,5h[4:1],,,,2,,8z4[2:1]/3b,,,,,,,,,,,,,,
3h[4:1],,,,1,,1h[4:1],,,,8,,8h[4:1],,,,6,,5/2b-6[8:1],,,,Cf,,,,,,,,,,
5h[4:1],,,,7,,85,,,,68,,68,,,,71,,7/1b>2-4<6b[8:3],,,,,,E8f,,,,,,,,
45,,,,4,,3h[4:1]/5,,,,1,,2/8bxh[4:1],,,,2,,3,,1b-5[16:1],,,,
6b-2[16:1],,,,3b-8[16:1],,,,3/7h[8:1],,,,
7,6,5,4,3/8,1,2,3,4/7b,,,,5,4,6,5,4x/7x,,4x-8[16:1]/7x-4[16:1],,,,
4b/7b>4[6:1],,,,6bxh[4:1],,,,5-2-4-8b[8:3],,5,,6h[4:1],,,,,,
7x,6x,5x,4x,3b/8x,,1,,1,,8b/4<7[8:1],,,,8x,,2x,,4x,,
{24}A7,D7,A6,D6,A5,D5,
{16}A4/8x,1x,2x,3x,6xv4b[8:1],,,,B8/6b,,,,2,1,2,1,2,1,3b-8[16:1]/8,,,,
5pp1[8:3],,,,C,,,,1,,3,,5,,
{12}7b,7,7,8b,8,8,
{16}1x/6x,,2,4,3,1bx,E1/B8/B7/E7,,,,7,5,6,8bx,
{999999999}E1,B1,E2,
{16},,5h,6h,7h,8h,1h,2h,3h,4h,
{12}6b,6,6,5b,5,5,
{16}2bx<1-7<5-3b[2:1],,,,Ch[2:1],,,,,,,,,,,,
8b,,2,1,2,,3h[16:1],,3h[16:1],,3h[16:1],,3q5<2[3:2],,,,,,,,,,,,,,
5x,,5x,,5xh[4:1],,,,1b,2b,3b,,6,,65,,3,,34,,45,,3b/6b,,
{24}3/8h[8:1],4,5,,,3/8h[8:1],4,5,,,3/8h[8:1],4,5,,,
{16}2x,,8x<5[16:1],,,,8/3h[4:1],,,,
{24}4,3,2,1,8,7,6,5,4,3,2,1,8,7,6,
{16}5b,,2,3b,,8,1b,,6,7b,,4,5b,,
2,4,2,3,2,1,2,8,2,8,2h[4:1],,,,
{64}A1/A3,D1/D4,A8/A4,D8/D5,A7/A5,D7/D6,
{9999999}A6,E6,E7,
{32},
{16},,,,
{32}1x,2x/8x,3x/7x,4x/6x,5bx,,,,
5x,6x/4x,3x/7x,2x/8x,1bx,,,,
{16}6xh[4:1],,,,2x,,
{24}1,5,1,5,1,5,1,5,1,5,1,5,1,5,1,5,,,
{16}Cf,,,,
3x,,,,
{12}2,5,3,4b,,,7,4,6,5b,,,
2,5,3,4,7,5,6,4,5,4b/5,,,
6,5,6,7/4b,,,1,1,1,28,,,
2,6,3,5,4,8,5,7,4,
(176)
{16}5b/6x,4x,3x,2x,1>5[4:1],,,,15,6h[16:1],7h[16:1],8h[16:1],
1h[16:1],2h[16:1],3h[16:1],4h[16:1],5h/1b,,
{32}18,,,,1,2,3,4,5,6,,,1,8,7,6,5,4,3,,
{12}1b,1b,1b,
{32}1,2x,3x,1,8x,7x,2,3x,4x,8,7x,6x,1,2x,3x,7,6x,5x,
{40}2b,1b,8b,7b,6b,5b,4b,3b,2b,1bw5[12:1],,,,,,,,
(230)
{16}1,,,,8w4[12:1],,,,8,,,,7w3[12:1],,,,
(240)
7,,,,6w2[12:1],,,,6,,,,5,,,,
{16}3x,5x,2x,4x,5bh[8:1],,,,6x,4x,7x,5x,4bh[8:1],,,,
3,4,2,6,5,7,2,3,1,7,6,8,
(176)
2bxw6b[12:1],,,,2b/C/B4/B5/B8/E1,,,,
{4},
{24}2,4,2,4,3,5,3,5,2,6,2,6,1,7,1,7,2,8,
{48}2b/1x,3x,4,5,6,7,8,1,2,3,4,5,6,7,8,1,2,3,
{58}A4,A5,A6,A7,A8,A1,A2,A3,D4,D5,D6,D7,D8,D1,D2,
{8}6bxh[16:1]/D3,7bxh[16:1]/8bxh[16:1],8bxh[16:1]/1bxh[16:1],
7bxh[16:1]/2bxh[16:1],5bxh[16:1]/3bxh[16:1],6bxh[16:1]/4xw8b[12:1],,
{999999999}E5,B5,B4,B6,B3,E7,E3,B7,B2,B8,B1,E1/Cf,
