&title=Ré:Ré
&artist=モリモリあつし vs. uma
&first=0.83
&des=Drelxyse
&lv_5=14+
&inote_5=(222)
{4}3h[128:1]/6^8[2:1],2h[128:1],2h[128:1],1h[128:1],,,2^4[2:1]/7h[128:1],6h[128:1],6h[128:1],5h[128:1],,,
{4}2h[128:1]/5h[128:1],6h[128:1],1h[128:1],7h[128:1],,8-2[4:1],7x/8x,6h[128:1],4h[128:1],2^7b[4:1],2x/5x,,
{4}6h[2:1],4,,3h[2:1],5,,7h[2:1],6,6,2h[2:1],3,3,
{16}6,,5,,6,,4,,6,,3,,
{16}7,E2,D2,,7,E4,D4,,7,E6,D6,,8bxpp3[1:1]/8bxqq5[1:1],,,,
{4},,,,,
{16}1h[4:3]/2h[4:1],,,,,,,,2,3,4,5,6,,,,
{8}1/2,8,3/7-4[8:1],,2/7,,1,6,8v3[8:1],7,8,,,,
{8}1-5[8:1]/7,7,1/7,,
{16}6,7,8,1,2^7[8:1],,,,5b/2x,,,,4,3,2,1,8-4[8:1],,,,
{8}8/5-7[8:1],,5/3v2[8:1],,,,1h[8:1]/8h[8:1],,1b/8b,,
{8}3/7v4[8:1],3,3/7,,
{16}3,2,1,8,7^2[8:1],,,,
{8}5h[8:1]/7x,,6h[8:1]/3-5[8:1],,7h[8:1]/3,,8-6[8:1],8,4-2[8:1],4,7,,
{16}6x,5,4,3,2-6[8:1],1,,,
{8}3h[8:1],,3,,5,4,5,4,5h[4:1],,
{8}3,6,2,7,
{16}1-6[8:1],2,3,4,5-8[8:1]/1,,,,
{8}5x,,1xv4[8:1]/7xv4[8:1],,1bw5[2:3]/7b,,
{2},,,
{8},,1,,B5,E6,B6,,
{64}2h[128:1],7,,,,,,,
{8},C,,C,,
{64}3h[128:1],6,,,,,,,
{8},B5,,B4,,5,,,,B2,E3,
{64}5b,4h[128:1],,,,,,,
{16},,B8,E8,E7,B7,,,,,
{64}3b,6h[128:1],,,,,,,
{8},B1,B2,B3,,
{64}7b,2h[128:1],,,,,,,
{8},B8,,E3,A3,
{16}4,5,6,7,8,1,2,3,4w8[8:1]/5,,,,4b,,,,2x/6x,,
{8}26,3-5[8:1]/5,,6-2[8:1]/3b,,6/1-7[8:1],,1/7,,4-1[8:1]/5-8[8:1],,45,,3^8[8:1]/6,,{16}7,6,5,4h[16:5],,,,,
{8}1,1,
{12}5,4,5,3,4,2,5,,,4,5,4,6,5,7,4-8[8:1],,,
{4}4b/8,26,
{12}15,26,37,4bqq1[2:1]/8bqq5[2:1],,,
{8},,,,,,,,
{4}8/5,6,1,7h[4:1],2^5[4:1],5^8[4:1],8^2[4:1],2z6^3[2:1],7h,,
{4}8,1,2,7V53[4:1],3-7-4-2b[2:1],2,1,1h[4:1],,
{16}8,8,8,8,8x,,
{8}1b/7b,1h[4:1]/7h[2:1],,,,
{16}2,3,4,5,7,8,1,2,3,4,5,6,7/3,8/4,1/5,2/6,1x/5x,8/4,3/7,,
{12}6,5,6,3,4,3,
{8}2h[2:1]/5h[4:1],,,,6,6,
{12}3,4,3,
{8}2/5,2/5,
{16}6h[8:1],,1,8,1,,
{8}7h[8:1],2,2,
{24}8^6[8:1],1,2,3,4,5,
{8}8x-2-4b[2:1],,
{8}8,7,6-4-7[2:1],,6,2,1,,
{8},,8-5[4:1]/8z4[4:1],2,7x/8x,,,,6-2<3[2:1],6,6,,,,1-7b[8:1],1/2,
{16}1/2,3,4,,6,5,4,,1,2,3,,2,3,4,,8,7,6,,7,6,5,,
{8}C,,2hx[4:1]/7hx[4:1],,,,
{24}1,8,1,8,1,8,1,8,1,8,1,8,
{8},,2/7,2/7,
{16}3-8[8:1],4,3,4,3,,6,,
{8}1/7,1/7,
{16}8,2,8,2,1,3,1,3,
{8}8^5[8:1]/4^1[8:1],1/5,8-3[8:1]/4-7[8:1],,8/4,,
{16}2b/6b,15,8w4[4:1]/4,73,6,5,,,
{8},,2/6,3,4-2[8:1]/6,7,4/8,,
{16}1-3^5-2b[8:3],8,1,,1/7h[8:1],,,,6h[8:1],,,,
{16}3,5,3,5,4,6,4,6,
{8}3bv2^8[4:1]/7bv6^4[4:1],2/6,3/7,,,,
{8}4/8,1/5,2/6,
{16}7,1,7,,2,8,2,,6,5,6,,3,4,3,8,1v4[8:1],7,
{16},,1,,6,7,8,1,2,3,,,
{16}3-8[8:1]/6,,5,4,
{4}3/7b-4[8:1],7/1bw5[8:1],1b,
{16}7x/3,,7/3x,,5,4,5,4,
{32}6,7,8,1,2,3,,,
{16}2x/6,,2/6x,,4,5,4,5,
{32}3,2,1,8,7,6,,,
{16}4h[4:1]/5h[4:1],,,,,,36,27,1v4[8:1]/8v5[8:1],,7/2,,1b-3[8:1]/8b-6[8:1],,,,8b<1[2:3]/1b,,,,
{4},3,3,2,6,6,7,
{8}8,1,8,2,8,3,7,3,6,3,5,3,
{16}6,4,4,,6,3,3,,6,2,2,,
{16}6x,3,3,3,6,4,4,4,6,5,5,5,
{4},1-4-8-5[4:3]/1-6-2-5[4:3]/Cf,,,,,
{16}6h[4:3]/4h[4:1],,,,,,,,3,2,1,8,7,,,,
{8}3/5,2,4/3-8[8:1],,3/6,,7,1,6v3[8:1],2,6,,,,
{8}1-5[8:1]/7,6,1/4h[8:1],,
{16}6,7,8,1,2^7[8:1],,,,5b/2x,,,,4,3,2,1,8-4[8:1],,,,
{8}8/3-1[8:1],,3/5-7[8:1],,,,1-4[8:1]/8-5[8:1],,1b/8b,,
{8}3/7v4[8:1],3,3/7,,
{16}3,2,1,8,7^2[8:1],,,,
{8}5h[8:1]/7x,,6h[8:1]/3-5[8:1],,7h[8:1]/3,,8-2[8:1],8,4-6[8:1],4,3,7,3h[2:1],
{8},,,7-2[8:1],7,,,
{16}6,3,5,4,6,3,5,4,
{4},
{16}62,73,84,15,2,3,4,5,
{8}6-2[8:1],,6p2b[8:1]/6q2b[8:1],,,,
{32}E4,E3,E2,E1,E8,E7,E6,E5,A3/Ch[8:1],A2,A1,A8,A7,A6,A5,A4,,,,,
{16},,4/8,,2/6,,7,6,5,8,7,6,,,4/5,,2/7,,8,1,2,3,4/1bx-6[8:1],2,3,4,5v7[8:1]/1v3[8:1],,,,
{8}1/5,,4-7[8:1]/8-3[8:1],,4/8,,
{16}2x-4[8:1]/6x-8[8:1],1x/5x,84,,,,,,
{12}7,5,6,2,4,3,7,8,6,2,1,3,
{24}6,5,6,5,,,3-7[8:1],4,3,4,,,
{24}3/6,,,5x,4x,3x,
{8}2,8,7-3[8:1],5h[8:1],,,
{8},4/5,3/6,7/8,1/2,
{16}6,5,8,,3,4,1,,6,4,7,,3,5,2,,6,4,8,,3,5,
{8}1b,
{24}8,7,6,5,4/8b,3/7,2/6,1/5,4/8,,,,
{8},
{32}1b/5b,,,,,,3b/7b,,,,,,1b/5b,,,,
{12}3-1[8:1]/7-5[8:1],37,37,
{8}B2/B6,,,,8h[4:1]/4h[8:1],,B3,,,,
{8}7h[8:1]/3h[4:1],,B8,,,
{8}3/6,7h[8:1]/2h[8:1],,
{4}1b-3-8[4:1]/8b-6-1[4:1],1bv4[8:1]/8bv5[8:1],C,
{8}3/6,3,
{16}7-2[8:1]/4,3,2,,
{8}7/4,4,
{8}3x/8x,3,
{16}2x-7[8:1]/6,7,8,,
{8}2/5,5,
{8}6h[8:1]/1h[8:1],,
{16}2/7,3/8,1/4,,
{8}4v5[8:1],,1b-7[8:1],1b,2b-6[8:1],2b,3b,4bh[8:1],
{16}1b,8,7,6,5,4,8b,7,6,5,4,3,
{16}8b,1,2,3,4,5,6b/2b,7/3,4/8,1/5,2/6,3h[16:7]/7h[16:5],
{8},,,,
{8}7-3[8:1],3-6^5-1b[4:1],76,,Cf,,,4b,
{12}1b,2,3,2h[128:1],3,4,3b,4,5,
{12}2b,8h[128:1],2,1,2,3,2,4x,,
{12}5b,6,7,6h[128:1],7,8,7b,8,1,
{12}6b,4h[128:1],6,5,6,7,6,8hx[6:1],,
{12}6,7,5,4,1,2,4,3,,
{12}3b/6b,2,1,8/4,7,6,5/1,4,3,
{12}2bh[12:1],4,3,8,1,6,5,7,4h[12:1],
{12}8,7/3,6/2,5/1,2/6,3/7,
{24}4b/8b,3,2/6,1,8b/4b,,
{16}5x,6,7,8,1/2,3,4,5,6x,7,8,1,6b,4,6,4,7,3,7,3,8,2,8,2,
{16}1b,8,7,6,2b,3,4,5,4b/6b,3/7,2/8,,1b,2,8,7,2,3,7,6,3,4,6,5,
{8}4V63[4:3],,,,1,8,7V15[4:3],,,,4,3,2V86[4:3],,,,3,4,5-3[4:1],,,,,,
{4}4h[4:3],7,1,3h[4:3],6,8,
{8}2h[8:1],4,2h[8:1],6,2h[8:1],8,
{16}1h[128:1],4,4,4,7h[128:1],4,4,4,8h[128:1],4,4,4,
{24}5b,6,7,3,2,1,8b,7,6,2,3,4,5b,6/4,7/3,8/2,,,
{24}1h[8:1]/2b,3,4,5,,,8h[8:1]/7b,6,5,4,,,4b/8b,1/5,2/6,3/7,4w8[3:4]/8,,
{8},,,,,,C,,,,,,,
E
