&title=o i i a i o o o o o i a i
&artist=黑瘦的鱼头
&first=0.32
&des=speckles
&lv_5=13+
&inote_5={16}(148)4,5,4,5,4,4,5,3,6,6,4,6,{8}3,1,
{4},,,(110){8}8,{16}6,6,
{8}6h[8:1],{16}4,5,5,3,6,6,{8}5h[8:1],{16}2,(82.7),{4},(150){8}7b,
{16}5,5,4,4,1,1,7,3,8,8,2,7,5,5,
{8}1,{16}1,1,6,3,4,4,3,3,{8}5,{16}1/8,7/2,{8}3/6,
7/2,{16}5,5,2,2,6,6,3,7,4,4,{8}6,8,
{16}2/8,5,4,5,{8}8,8/4,{16}7,7,5,6,{8}4,5,
8/Ch[8:1],{16}7,7,{8}1,{16}2,6,3,3,7,7,{8}2,4,
6/Ch[8:1],{16}4,4,{8}6,{16}2,2,7,7,{8}1,{16}8/4,7,6,6,
{8}3/Ch[8:1],{16}4,4,{8}7,{16}3,4,6,6,1,1,{8}7,7,
4/Ch[8:1],{16}5,5,{8}3,{16}5,4,2,2,4,4,1,1,1/6,6/1,
{8}Ch[8:1],{16}6-1[16:1],5,,5,{8}6,5v8[16:1],{16}4,5,{8}5/3>8[16:1],{16}3,7,
{8}3,6,{16}6/3,6,4,4,{8}8<5[16:1],7,1/8-4[16:1],4,
8/3,{16}2,2,{8}5/2,{16}6,6,{8}2-5[16:1],{16}7,7,{8}7/2<7[16:1],{16}6,6,
{8}2,4,{16}6,3,{8}6,{16}1,1,1,1,1,1,1,1,
{8}1/Ch[8:1],{16}3,3,{8}5,{16}6,6,{8}4-8[16:1],{16}7,7,{8}4>1[16:1],6,
4,7,{16}5,5,2,8,{8}2-6[16:1],4,2,{16}7,7,
{8}7/Ch[8:1],{16}6,6,{8}3,{16}5,5,3-5[16:1],6,{8}6,3/6,2,
{16}2,1,8,7,6,5,4/8,7/3,2/6,1/5,{8}4/8,{4}Cf/B8/B4,
{16}8b,3,6,1,4,7,3,8,1,7,3,5,1,7,4,8,
2,6,4,8,2,5,1,7,3v8[16:1],6,2,5,{4}3,
{16}7,4,8,3,6,4,8,3,7,2,6,4,7,2,6,4,
7,2,6,3,8,4,7,1,6v1[16:1],3,8,5,{4}6,
{16}5,4,,8,{8}7,{16}4,3,{8}6,{16}4,3,{8}7,{16}1,6,
{8}4,{16}2,5,4,6,3,6,4,5,4,8,{4}1h[8:1],
{8}6,{16}4,5,{8}1,{32}6,5,{16}4,{8}8,{32}2,3,{16}4,{8}7,{32}8,7,6,5,
{1}4/B4/B8/B5/B6/B7/B3/B2/B1/Cfh[32:1],
{6}5-7[8:1],{12}5,5/3-1[8:1],,3,{6}8,{12}6,3-5[8:1],,3,
{6}3/7-1[8:1],{12}7,2-5[8:1],,2,{6}7-4[8:1],{12}7,7/1,1,2,
{6}2-8[8:1],{12}2,2/6-3[8:1],,6,2,1,4x,5x/1-5[8:1],,1,
{6}7-2[8:1],{12}7,7/3-6[8:1],{6},3-8[8:1],{12}7,3,{6},7b-2[16:1],
{12}7,7/3-6[8:1],,3,8,8,,7-1[8:1],,7,
{6}7/3-5[8:1],{12}3,6<1[8:1],,6,{6}3-8[8:1],{12}3,3/5,5,6,
{6}6-4[8:1],{12}6,6/2-7[8:1],{24},{8}2,6,{16}5,8x,{48}{12}1x/5-1[8:1],,5,
{4}5/3-8[8:1],3<6[8:1]/7>2[8:1],3-7[8:1]/7-3[8:1],7/3,
{16}5,5,4,4,6,6,3,3,7,7,1,1,6,6,3,3,
8,8,4,4,{4}Cfh[32:1],
