&title=猛独が襲う
&artist=MyGO!!!!!
&first=0
&des=!!!!!OMyG
&lv_5=13+
&inote_5=(156)
{1},
{8}28,,2,1,2,8,2,,
{8}8,7,6,5,4-7[8:1],,,,
{8}28,,2,1,2,8,2,,
{8}34,,46,5,35,4,56,,
{8}35,,3,4,3,5,3,,
{8}5,6,7,8,1-6[8:1],,,,
{8}35,,46,46,37,37,28,28,
{16}1,8,3,6,2,7,4,5,3w7[8:1],,,,3,,,,
{8}1,2,38,7,4-8[8:1]/6,,4,,
{8}17,2,36,5,2v7[8:1]/4v7[8:1],,,,
{8}8,1,25,6,7-3[8:1]/8,,7,,
{8}1,2,7,6,2,34,26,34,
{8}5,6,74,3,8-4[8:1]/2,,8,,
{8}53,6,72,1,6v3[8:1]/8v3[8:1],,,,
{8}4,5,61,2,3-7[8:1]/4,,3,,
{8}5,6,3,2,6,78,62,78,
{8}1-4[8:1],1-6[8:1],,,5-2[8:1],5-8[8:1],,,
{8}1V74[4:1],2,3-8[8:1],,,,,,
{8}4-1[8:1],4-7[8:1],,,8-3[8:1],8-5[8:1],,,
{8}4V61[4:1],3,2-5[8:1],,,,,,
{8}8-5[8:1],8-3[8:1],,,4-7[8:1],4-1[8:1],,,
{8}8V25[4:1],7,6-1[8:1],,,,,,
{8}5-8[8:1],5-2[8:1],,,1-6[8:1],1-4[8:1],,,
{8}5^2[8:1],6,7-4[8:1],8,1,2,34,26,
{8}1,2,38,7,4-8[8:1]/6,{16}5,5,4,,6,,
{8}17,2,36,5,2v7[8:1]/4v7[8:1],,,,
{8}8,1,25,6,7-3[8:1]/8,{16}1,1,7,,8,,
{8}1,2,7,6,2,34,26,34,
{8}1-4[8:1],1,7,8,1-6[8:1],1,4,3,
{8}2-5[8:1],5-2[8:1],2-7[8:1],7-2[8:1],7-5[8:1],,,,
{8}8-5[8:1],8,2,1,8-3[8:1],8,5,6,
{8}7-4[8:1],4-7[8:1],7-2[8:1],2-7[8:1],2-4[8:1],,,,
{8}1^4[8:1],1,7,8,1^6[8:1],1,4,3,
{8}2-5[8:1],5-2[8:1],2-7[8:1],7-2[8:1],7-5[8:1],,,3,
{8}4,5,6,5,34,12,78,56,
{4}3b-7[8:1]/4b-8[8:1],4b/3b,{8}1b/6b,2v5[8:1],5>7[4:1],2,
{8}6bpp1[8:3],,5,4^1[8:1],,4^7[8:1],,4,
{8},1-4[8:1]*-6[8:1],,1,,7v4[8:1],4<2[4:1],7,
{8}3qq8[8:3],,4,5^8[8:1],,5^2[8:1],,5,
{8},8w4[8:1],,8,,2v5[8:1],5>7[4:1],2,
{8}6pp1[8:3],,5,4^1[8:1],,4^7[8:1],,4,
{8},1,24,35,46,18,24,35,
{8}4-8[8:1],4,7-5[8:1],7,1-3[8:1],1,4,5,
{16}36,,7,,18,,2,4,3,,{8}7v4[8:1],4<2[4:1],7,
{8}3bqq8[8:3],,4,5-1[8:1],,5^2[8:1],,5^8[8:1],
{8},5/8-5[8:1]*-3[8:1],,8,,2v5[8:1],5>7[4:1],2,
{8}6pp1[8:3],,5,4-8[8:1],,4^7[8:1],,4^1[8:1],
{8},4/1w5[8:1],,1,,{16}7,,5,5,6,6,
{8}4-8[8:1],4,3-7[8:1],3,2-6[8:1],2,1-5[8:1],1,
{8}8-4[8:1],8,7-3[8:1],7,6-2[8:1],6,5-1[8:1],5,
{8}4,3,24,6,47,3,26,7,
{8}48,3,25,6,47,56,37,56,
{8}8,7,6/1^4[8:1],2,1^6[8:1]/8,,13,,
{8}4-8[8:1],4,5-7[8:1],5,1v4[8:1]*v6[8:1],,1,,
{8}1,2,3/8^5[8:1],7,8^3[8:1]/1,,86,,
{8}5-1[8:1],5,4-2[8:1],4,8,7,64,53,
{8}3-1[8:1],6-8[8:1],3,6,1v8[8:1],,1-5[8:1],,
{8}1,7,6,3<1[4:1],5v3[8:1],,,,
{8}1,28,37,46,5>1[8:1]*<1[8:1],,5,,
{8}8,7,2,3,6,5b/3b,2b/4b,
E
