&title=ほのぼの神社
&artist=再調整の人
&first=0
&des=Holi☆
&clock_count=4
&lv_7=饼
&inote_7=(150)
{1},
{8}
3-7[1:1],,,,5,,,,
3,,,,6,,,,
E6/E5/A5,,,,E1/E2/A1,,,,
E8/E7/A7,,,,E4/E3/A3,,,,
5h[4:3],,1,,2,,3,,
4h[4:3],,8,,7,,6,,
5<8[4:2],,1,,2,,3,,
4>1[4:2],,8,,7,,6,,
6-3[4:4]*>3[4:4],,,,,,E8/E2,,
,,1h[4:1],,3h[4:1],,5h[4:1],,
7b-2-5-8-3q7b[4:6],,,,,,,,
,,,,,,,,
5h[4:3],,1,,2,,3,,
4h[4:3],,8,,7,,6,,
5<8[4:2],,1,,2,,3,,
4>1[4:2],,8,,7,,6,,
7qq4[4:3]/2pp5[4:3],,,,,,,,
,,8h[4:1],,6h[4:1],,4h[4:1],,
2b-7-4-1-6p2b[4:6],,,,,,,,
,,,,,,,,
8h[4:3],,4,,3,,2,,
1h[4:3],,5,,6,,7,,
8<5[4:2],,4,,3,,2,,
1>4[4:2],,5,,6,,7,,
6-3[4:4]*>3[4:4],,,,,,E8/E2,,
,,2h[4:1],,8h[4:1],,6h[4:1],,
4b-1-6-3-8p4b[4:6],,,,,,,,
,,,,,,,,
8h[4:3],,4,,3,,2,,
1h[4:3],,5,,6,,7,,
8<5[4:2],,4,,3,,2,,
1>4[4:2],,5,,6,,7,,
7bxpp4[4:3]/1bxqq4[4:3],,,,,,,,
A4f,,5hx[4:1],,7hx[4:1],,1hx[4:1],,
3x<3<3b[1:2]/B8/B2/B4/B6/Cf,,,,,,,,
,,,,,,,,
,,,,,,,,
,,,,,,,,
