&title=Imaginary Friends
&artist=Sta
&first=0
&des=…to mo da ti ?
&lv_5=13+
&inote_5=(155)
{4},
{8},,,,,,,,,,,E6,E5,E4,
{1},
{48}E3,B3,
{4},
{16},,,{48},
{16}D7,,,B6,,B4,,D4,
{1},
{64}5pp8[4:5],4qq1[64:111],
{1},,,
{16},,,{32},
{8}4,3,5,4h[8:3],,,,,5,6,4,5h[8:3],
{4}E7,E1/B1,
{8}2,4,3,1V73-5[8:9],
{4}2z6[1:1],,,,,,6h[4:1],
{8}B7,B8,{4}6h[4:1],
{8}B4,B3,{4}2h[4:1],{8}B8,B7,{4}2h[4:1],
{8}B3,B4,{4}1>4[4:1],4<7[4:1],7>2[4:1],2b>6b[4:1],6<7>8>1>2>3<4<5<6b[2:1],
{2}2q7[4:1],
{24},,,,,,D5,D4,B3,D3,
{12}D2/D1,
{24},,,E1,D8,B7,D7,D6/D5,,,,,
{4}3/4h[4:1],2,6/5h[4:1],7,4/3h[4:1],2,5/6h[4:1],7,1-4[8:1],5-8[8:1],2,
{8}6,5,7,{16}3,4,,,
{8}5<8[8:1]/1>4[8:1],,15,,,
{4}
6/5h[4:1],
7,3/4h[4:1],2,
5/6h[4:1],7,4/3h[4:1],2,
4-6[8:1],2v3[8:1],8,{8}5,3,
{4}
8h[2:1]/4q1<8q5b[2:1],,,7,
7-3[8:1],{8}5x,4>1[8:1],,4,{4}8<5[8:1],
2-6[8:1],{8}4x,5<8[8:1],{4}1>4[8:1],1,
7-3[8:1],{8}5,4-1[8:1],,4,{4}7,
4h[8:1]/2h[8:1],5h[8:1]/7h[8:1],{8}4-7[8:1],3,{4}4/2h[4:1],
8,1,2/4h[4:1],{8}5,6,
7,7h[8:1],5,5h[8:1],4,4h[8:1],3,3,
{4}
3/4pp5[16:3],1>3-5[16:3],1,{16}6,7,{8}8,
12,{16}5,3,{8}4,26,3-8[8:1]/4-8[8:1],25,,,{4}7b-5[8:1],
37,4-8[8:1],14,
2-4[8:1],25,5-1[8:1],{8}57,,
{4}8/3-7[8:1],2/3-5[8:1],37,17,
{24}2bx,3,4,6,7,8,2bx,3,4,6,7,8,2bx-5[8:1],3,4,6-1b[8:1],7,8,
{4}
2bx,5x<4[8:3],8q5[8:1],,6h[8:1],
6/8>3[8:1],{8}68,7,{4}8<5[8:1],4q1[8:1],
2v4[8:1],4xV28[16:3],7v5[8:1],7,
4>8[4:1],{8}8V26[4:1],7-3[8:1],{2}6x,
{4}
2b-4[8:1],62,5-1[8:1],85,
7-5[8:1],74,4-8[8:1],42,
1/6-4[8:1],{8}6/4-7[8:1],3,{4}2-5[8:1],2,
{24}7bx,6,5,3,2,1,7bx,6,5,3,2,1,7bx-4[8:1],6,5,3-8b[8:1],2,1,{4}7bx,
4x>5[8:3],1p4[8:1],{8},,3,3,
{4}2-5[8:1],4-7[8:1],{8}8q6[4:1],1,{4}2pp4pp6b[8:5],,,A2/D2/B2,8h[4:1],
{1}5bx-7-4-8-3-1b[8:5],
{4}
4h[4:1],{8}2,2,{4}5h[4:1],{8}3,3,
6,6h[8:1],5,5h[8:1],4,4h[8:1],3,3,
3-6[8:1],2,7-4[8:1],8,3-6[8:1],2,8,7,
6/4,{16}3,4,,,{8}5<8[8:1]/1>4[8:1],,1qq8[4:1],,1,
{4}
B4/D4/E3,{8}7x,7x,{4}4h[4:1],{8}6,6,
3,3h[8:1],4,4h[8:1],1,1h[8:1],8,8h[8:1],
{4}5>2[8:1],8<5[8:1],1-5[8:1],1,
{8}8,{16}7,5,{8}6,4/5,4-6[8:1]/2-6[8:1],1,,,7-3[8:1],
7,2,1-4[8:1],,1,7-3[8:1],7,
5-8[8:1],4h[4:1],,,2,8,1h[4:1],8,
7-3[8:1],7,5,4-1[8:1],,4,7-4[8:1],7,
4/7bpp7b[4:1],,,5x,{2}2x-6[8:1]*v3[8:1],
{8}7,7,8,8,5,5,4,4,
2,13,5,64,7,86,4,35,
5,5h[8:1],3,3h[8:1],6,6h[8:1],4,4h[8:1],
7b,{16}4,5,{8}4,2b,{16}6,5,{8}6,{32}3h[8:1],E6,E7,E8,E1,E2,,,{8}4bx-7[8:1],
3,{4}4/2h[8:3],{8}1<6[8:1],1,{4}4>1[8:1],
{8}6V47[16:3],6,{4}8>3[8:1],{8}8,6,{4}7h[8:1],
{8}7x/5x-1[8:1],6/4,{4}2,{8}2x/4x-8[8:1],5/3,{4}7-3[8:1],
7/2-6[8:1],2/8-4[8:1],{8}8/4,2,5x,6xh[8:1],
3x-5[8:1],2,{4}3/5x-2[8:1],{8}7-4[8:1],8,{4}7/4x-8[8:1],
{8}1<6[8:1],2,1/6xq3[8:1],5,{4}4-8[8:1],4,
{8}1/2h[4:1],3,{4}4,{8}5/7h[4:1],6,8>3[8:1],8,
5<8[8:1],5,{4}4pp2b[4:1],{8}B6/B5,8x,{4}8x,
{8}5bx-2[8:1],6,{4}5/7h[8:3],{8}8>3[8:1],8,{4}5<8[8:1],
{8}3V52[16:3],3,{4}1<6[8:1],{8}1,3,{4}2h[8:1],
{8}
2x/4x-8[8:1],35,{4}7,{8}7x/5x-1[8:1],46,{4}2-6[8:1],
2/6-4[8:1],7-3-6[4:1],{8}7/2h[4:1],,,2,
5>2[8:1],6,{4}5/7-4[8:1],{8}7/8,1,5/2pp4[8:1],4>7[16:3],
2,7,{4}6-2[8:1],{8}6/5V37[4:1],4,{4}3h[8:1],
{8}1-5[8:1],1,{4}4<7[8:1],8>3[8:1],4h[8:1],4bxw8b[8:1],4,
{8}5/3,A7/B7/E8,{4}E1/B1/A1,
{8}8-4[8:1],8,1-5[8:1],1,6-2[8:1],6,3-5[8:1],3,
1<5[16:3],1,3,2,8>4[16:3],8,6,7,8-4[8:1],8,1-5[8:1],1,7-2[8:1],7,3-6[8:1],3,
{4}6b-3qq5b[2:1],7h[4:1],{8},E8,{4}E7,
{8}
56,56,4x/7x,56,34,34,2x/5x,34,
56,47,56,48,34,25,34,15,
6,6h[8:1],5,5h[8:1],4,4h[8:1],3,3h[8:1],A8,E8,A2,E3,B6,D6,E4,A4,
{1}5x-3v2<5V74[4:11],
{16},,,,,,,,,,,,,,,,,,,2h[16:13],,,,,,,,,,,,,,,,,{4}D7,
{16},B6,,,,B4,,,,D4,
{32},,,,,,,5xh[16:13]/D5,{1},{32},,{32},D5/5xpp8[32:69],
{1},{2}4qq1[8:9],
{8},,,,,,,,,D5,,C,,1v8b[8:1],
