&title=カワキヲアメク
&artist=美波
&first=-0.51
&des=老吴
&lv_5=13+
&inote_5=(129)
{1},,,,,,,{4}C,C,C,1b,
{16}28,2h[16:10]/8,,1,,3,,8,,4,,1,38,,45,,
{16}71,7h[16:10]/1,,8,,6,,1,,5,,8,61,,54,,
{1}1b>8b[2:1],
{32}2xpp1[16:8],3x,4xpp8[16:7],,,,,,{4},,,
{16}24,,,35,,,4>1[4:1]/6h[4:2],,,,,,,,,,
{16}78,,,18,,,1/2h[4:1],,,,,,{16}E8,E7,E6,E5,
{16}3,,,24,,,1/5h[2:1],,,E1,E2,E3,E4,E5,C,,
{16}6,,,57,,,4/8-5-8[4:1],,,,Ch[8:1],,,,,,
{16}75,,,64,,,5<8[4:1]/3h[4:2],,,,,,,,,,
{16}21,,,81,,,8/7h[4:1],,,,,,{16}E2,E3,E4,E5,
{16}6,,,75,,,8/4h[2:1],,,E1,E8,E7,E6,E5,C,,
{16}3,,,42,,,5-7[12:1]/1,,,,4b,,1,8,2,7,
{16}3-1[8:1],,,4,3,,6,,8-5[8:1],,1,,28,,3,,
{16}6<1[8:1],,,4,6,,2,,3v5[8:1],,8,,37,,6,,
{16}4-8[8:1],,3,3,4,,1,,2h[8:1],,{24}A7,E7,E6,{8}1h[8:1],{24}E8,C,E4,
{16}2-5[8:1],,,1,2,,8,8,4qq3[16:3],,5,,46,,7,,
{16}6-8[8:1],,,5,6,,3,,1-4[8:1],,8,,71,,6,,
{16}3>8[8:1],,,5,3,,7,,6v4[8:1],,1,,62,,3,,
{16}45,,,1,8b,,2,2,4,4,3>6[4:1],5,4,,2xh[4:1],,
{16},,,,1b/5hb[4:1],,,,4,,26,,2-4[12:1]/6-4[12:1],,,,
{4}2b/6b,C,{8}5,5,C,,
{8}4h[4:1],,C,,5,{16}1,7,2,8,1,,
{8}1b/8b,1b/8b,2b/7b,2b/7b,3b/6b,{24}4w8b[8:1],5,4,5,,,4b,,,
{16},,2x,3x,4x-8[8:3],,,,,,,,,,,,
{32}1b,2,3,,{16}7,7,{32}4b,3,2,,{16}6,6,1-5-1[6:1],8,2,7,7,,,,
{32}8b,7,6,,{16}2,2,{32}5b,6,7,,{16}3,3,8-4-8[6:1],1,7,2,2,,,,
{16}7,7,5,5,7-5[12:1],7,1-3[12:1],1,7-3[8:1],,1,,7,,,,
{8}4b-1[12:1]/2,8b-5[12:1]/6,4b,8b,{16}2,4,2,4,1,,8,,
{8}5b-1[8:1]/7b,4,3,2,1-3b[12:1],8,C,8,
{8}7-5b[12:1],8,C,1,2-6[8:1],1,8,7,
{8}5b/6b,3b/4b,5b/7b,2b/4b,6b/8b,1b/3b,7b/8b,1b/2b,
{32}4bw8b[12:1],5,6,7,8,1,2,3,{4}4,{24}6x,5x,4x,{16}2,2,{24}5x,6x,7x,{16}1,1,
{32}8b,7,6,,{16}2,2,{32}7b,6,5,,{16}3,3,8-5>4-7[6:1],1,7,2,2,,,,
{32}1b,2,3,,{16}7,7,{32}4b,3,2,,{16}6,6,1-4[12:1]*-4[12:1],8,2,7,C,,6,,
{8}5b-3b[12:1]/7b,8,C,8,7-1b[12:1],2,C,2,
{8}3-7[8:1],4,5,{16}6,6,{8}8>3[8:1]*<5[8:1],1,8w4[8:1],,
{8}8b,,2h[8:1],{32}1,8,7,6,{24}4,5,3,6,2,7,{12}1>4b[12:1],1,1,
{32}8bz4[4:3],7x,6x,5x,,,,,{4},,,
{16}3h[4:1],,,,2,,,3,5,4,6,,7,,,,
{16}4h[4:1],,,,2,,,3,5,4,6,,7,B5,B4,,
{4},E
