&title=ジュビリー
&artist=高垣楓/星街すいせい
&first=0
&des=Meltryllis
&lv_5=13+
&inote_5=(129)
{1},
(98)
{16},,,,
,,,,
,,
{4}3v4-2-5-3[8:5],,,,
{4}6v5-7-4-6b[8:5],,,,
{4}4z8[8:7]/5s1[8:7],,,,
{24},,,,,,,,,2x,,,,,,,3x,,,,,,,,
(64.5)
{4}5x<1[8:3]*>1[8:3]/4x,,,1w5[8:1],
{8}1>8[8:4],,,,,,C,,
{8}2q3[8:4]/7p6[8:4],,,,,,,,
{8}8<8b[8:4]/4>8b[8:2],,,,,,C,,
{8}1^4[8:2]/8^5[8:2],,,,,,C,,
(129)
{24}2h[4:3]/B8,C,B5,,,,E6,E7,E8,,,,B8,C,B5,,,,E6,E7,E8,,,,
{24}2h[4:3]/E8,E7,E6,,,,B5,C,B8,,,,E8,E7,E6,,,,B5,C,B8,,,,
{24}7h[4:3]/B1,C,B4,,,,E4,E3,E2,,,,B1,C,B4,,,,E4,E3,E2,,,,
{24}7h[4:3]/E2,E3,E4,,,,B4,C,B1,,,,E2,E3,E4,,,,B4,C,B1,,,,
{8}2h[4:2]/8-3[8:1],,8,,8-4[8:1]*-3[8:1],,8,,
{8}6h[4:2]/2-5[8:1],,2,,2-5[8:1]*-6[8:1],,2,,
{8}8h[4:2]/3-1[12:1],,3,,4-8[8:1],,4,,
{8}5-7[12:1]/8h[4:2],,5,,4w8[8:1],,4,,
{8}2-4b[8:1],2,1-5b[8:1],1,8-6b[8:1],8,1,1,
{24}1,8,1,8,1,8,1,8,1,8,1,8,{24}Cxh[12:3],,,,,,,,,,,,
{16}8<5[8:1],,71,,{24}2b/8b,,,,,3,5,,5,4,,4,6,,6,5,,5,
{16}7>2[8:1],,65,,{24}4,,,,,,3/4>1[8:1],,,,,,4/5<8[8:1],,,,,,
{16}3/5>2[8:1],,,,5/6<1[8:1],,,,6/4>5[4:1],,,,4/8h[16:4],,,,
{24},,,,,,27,,,,,1,7,,7,2,,2,6,,6,4,,4,
{24}5-1b[8:1],,,46,,,3,,,,,2,8,,8,4,,4,7,,7,3,,3,
{24}6<2[32:5]*q3b[32:5],,,45,,,6,,,,,,4<7[8:1]/5,,,,,,4>1[8:1]/3,,,,,,
{24}6/4-7[8:1],,,5,,,2/4-1[8:1],,,3,,,7/4-8[8:1],,,6,,,14,,,2,,,
{24}3^8[8:1]*^6[8:1],,,,,,3b,,,,,,7,,7,3,,3,6,,6,1,,1,
{24}5bh[4:2],,,,,,,,,,,,1q5[8:1]*p5[8:1],,,,,,
,,,,,,
{24}7>1[12:1],,,6,,,57,,,4,,,
3>1[12:1],,,4,,,53,,,7,,,
{24}6pp6[4:1],,,5,,,64,,,3,,,2qq2[4:1],,,3,,,42,,,5,,,
{24}6p1[32:5]*>2[32:5],,,,,,,,,,,,2xv1-3-8-2[8:5],,,,,,7x-4-6b[8:3],,,,,,
{24},,,,,,,,,,,,7xpp2b[8:5],,,,,,3xq6[8:3],,,,,,
{24},,,,,,,,,,,,1x-3pp4-1[8:5],,,,,,7xV58b[8:3],,,,,,
{24},,,,,,,,,,,,1x>5qq5b[8:5],,,,,,5xpp5[8:3],,,,,,
{24},,,,,,,,,,,,C,,,,,,8w4[8:1],,,,,,
{24}8x<1[8:12],,,,,,,,,,,,,,,,,,,,,,,,
{24},,,,,,,,,,,,,,,,,,,,,,,,
{24}1x>8b[8:12]/Ch[4:4],,,,,,,,,,,,,,,,,,,,,,,,
{24},,,,,,,,,,,,,,,,,,,,,,,,
{24}1-5[8:1],,,,,,17,,,,,,8-4[8:1],,,,,,28,,,,,,
{24}8-4[8:1]*-5[8:1]/6,,,,,,8,,,,,,3/1-5[8:1]*-4[8:1],,,,,,1,,,,,,
{8}5xh[8:1]/4x,4,4/3h[8:1],4,6h[8:1]/4,4,4/2h[8:1],4,
{8}7h[8:1]/4,4,1h[8:1]/4,4,{24}4,8,4,
8,4,8,
4,8,4,
8,4,8,
{8}3V15[12:2],1,3b/5b-1-3[12:2],,6V84[12:2],,6x/4x,,
{24}2-5[12:1],,,1,,,25,,,6,,,7-4[12:1]/4,,,3-8[12:1],,,7,,,3,,,
{8}6V84[12:2],8,6b/5b-1-3[12:2],,5xV73[12:2],,5x<4[12:3],,
{8},,,64,57,6,5-1-3[12:2]/3,4,
{8}6V84[12:2]/5,7,6b/4b-8-6[12:2],,3V15[12:2],,3x/5x,,
{24}7-4[12:1],,,8,,,74,,,3,,,2-5[12:1]/5,,,1-6[12:1],,,2,,,1,,,
{24}4>6[4:1],,,,,,5,,,,,,4>6b[4:1],,,,,,5,,,,,,
{24}4-2-5-1-6-8[4:2],,,,,,
,,,,,,
,,,,,,
,,,,,,
{24}7x-5-1[12:2]/8x-4-2[12:2],6x/1x,5x/2x,{8}4x/3x,7b/8b,,2x-4-8[12:2]/1x-5-7[12:2],,12,,
{24}7x-4[12:1],,,85,,,74,,,3,,,2-5[12:1]/5,,,6-1[12:1]/1,,,2,,,6,,,
{8}3V15[12:2],1,3b/4b-8-6[12:2],6,4xV26[12:2],3,4x>5[12:3],5,
{8},,,35,41,2,4-8-6[12:2]/8,6,
{8}3V15[12:2]/4,2,3b/5b-1-3[12:2],4,6V84[12:2],7,6x/4x,3,
{24}2-5[12:1],,,14,,,25,,,6,,,7-4[12:1]/4,,,3/8-3[12:1],,,7,,,8,,,
{24}5<3[4:1],,,4,,,53,,,4,,,5<3b[4:1],,,4,,,53,,,4,,,
{24}5pp5<4[8:5]*qq5>6[8:5],,,,,,
,,,,,,
,,,,,,
,,,,,,
{24}4xw8[8:1]/5x,,,,,,
E4/B4/E5,B2/Cf/B6,,A1/A8/A7,,,
5xw1b[8:1]/4x,,,,,,
E6/B5/E5,B7/Cf/B3,,A8/A1/A2,,,
{24}4x-1[4:2]/5x-8[4:2],,,,,,,,,,,,,,,,,,,,,,,,
{24}A8,A4,D8,D4,A7,A3,D7,D3,A6,A2,
D6,D2,A5,A1,D5,D1,A8,A4,,,,,,,
{24}1xh[4:4]/3xh[4:4],,,,,,,,,,,,,,,,,,,,,,,,
