&title=Marigold
&artist=M2U
&first=0
&des=Yours Sincerely, Alice.
&wholebpm=160
&lv_5=14
&inote_5=(160)
{1},
{4}5h[8:1]/3h[2:1],6h[8:1],7h[8:1],3h[8:1],2/6,5,3/7,4,
{8}2/8,7,1/8,2,3/7,6,2/5,3,5h[2:1],,2,,3h[2:1],,7,,
8,8h[8:3],2h[8:4],,,,,,6h[2:1],5,4,3,3h[2:1],6,7,8,
7h[2:1],,,1,2h[2:1],,,6,5h[2:1],,,2,3h[8:1],,5,6,
7x/B4,6,2/5,1,2x/B7,3,4/8,7,6x/B1,5,4,3,
{64}2hx[384:234],,,,,,,,,,,B8,,,,,,,,,,,,B7,,,,,,,,,,,,,,,,B6,,,,,,,,,,,,,,,,,,,
{24}E1/E5,E2/E6,E3/E7,
{4},,,,,
{32},,,,,,,3xb/7xb,2/6,1/5,8/4h[32:13],,,,,
{16}7,8,1,2,3-7[16:3]b,,,,3/5,,,,
6>3[16:3],,,1,1b,,,,
2>5[16:3],,,8,8b,,,,
7-3[16:3]*-4[16:3],,,7,7xb,,,,
{4}2-6[16:3]b,2/8-4[16:3]b,8/5x>2[16:3],5<8[16:3],5p1[16:3],5,7h[8:1],
{16}8,7,1,6,
{32}2,3,4,5,6,7,8,1,
{4}2/5xV71[16:3],3h[8:1]/5,2v5[16:3],2/8h[8:1],7<4[16:3],1h[8:1]/7,
{8}8q3[16:5],,8/5,,6,,
{32}3b/7b,2/6,1/5,4q2q8[16:24]b/8q6q4[16:24]b,,,,,
{4},,,,,,,
{8}3/7,2,1/6,7,8/2,3,4/7,6,2h[2:1]/5h[8:1],,6h[8:1],,7h[8:1],,2,7,
{24}1,8,1,8,1,8,1,8,1,8,1,8,1,,,,,,,,,,,,
{4}2x,2-4[16:3],6h[4:1],,4,4-2[16:3],5h[4:1],,
1h[4:1],7-5[16:3],8/7,8-4[4:1]b,1/8,1-3[16:3],1/4,4pp7[2:1],
4/3,3-1[16:3],3,8-6[16:3],1/8,1v3[16:3],1/5,5V73[16:5],5,
2-6[16:3],2/1x-5[16:3],1/2x>1[2:1],2x,,5h[4:1],,
3-5-2[16:5]/6h[4:1],,7,8<4[16:5],8,1pp4[16:11],1,7-4[16:3],7,B3,B1/E2,
5h[4:1],2,2p3[16:5],6,7<4[4:1],7,1p3[4:1],1,
6-2[16:3]b,3x-7[16:3]b/6,3/8x-3[16:3]b,1x-6[16:3]b/8,1/5xw1[16:3]b,5b,,
Cf,,
2>5[4:1]/8,8h[8:1],7q5[4:1],4h[8:1],3>8[4:1],6h[8:1],5<3[2:1],4h[8:1],3q5[16:7],,
1,2qq5[2:1],B7/E8/B8,,6,7,
8>3[4:1]/3,4h[8:1],5v2[4:1],6h[8:1],7<4[4:1],1h[8:1],2-4[16:3],
7p4[16:9],7,,B1/E1,2,2q5[16:13]/7pp4[16:13]b,,,,,,B6,,E3,,E8,
{8},1,2b>5[16:3]b/8,,2,,7b-3[16:3]b,,7,,1b-5[16:3]b,,1bw5[16:3]b,,1b,,Cf,,
{32}3b/7hb[16:6],4,5,6,,8,1,2,3,4,5,6,,8,1,2,3x-8[20:3]/7x-4[20:3],,,,
{8},3/7,,2/5,
{16}3,4,2,,
{24}7x,6,5,4x/3,,,1b,,,
{16},,4/6,,2b-5[20:3]*-6[20:3]/Cf,,,,2,,,,7,7,7,7,7,,
1,8,1,7,1,6,1-3<4[20:3],5,1,4,1x-7<6[20:3],,,,1x,,,,
2/5,,3,4,3,4,3,,
{24}7x,6,5,8x,7,6,2x,3,4,1x,2,3,7hx[8:1],,,
{16}4,4,4,,5hx[8:1],,2,4,3,7,1,6,8,5,1hx[8:1],,6,6,6,,3hx[8:1],,7-3[16:3]b,,,,7,,,,
{8}2-5[20:3],1,2/8-4[20:3],7,3-6[20:3]/8,2,3/5h[4:1],,
{24}6xb,7,8,1,2,3,4/6x,7,8,1,2,3,4-7[20:3]b/2x-5[20:3]b,,,,,,
{8}2/4,,4/6,
{16}3,5,4,,
{24}7x,6,5,4x/2,,,8b,,,,,,
{8}3/5,7b<1[2:1]b*-4-8-3-1[2:1]b/Cf,,,,,,,
{24}8x,7x,6x,
{8}5x/2xq6[16:3],3,2/8-4[16:3],7,1w5[16:3]/8,2,1,,
{8}3/7,4,4,
{24}5,4,3,2,1s5[15:2]b,8,7,6,5,1,,,
{8},3x/6,7,7,
{24}1,8,7,6,5V71[15:2]b,4,3,2,1,5,,,
{8},2/8x,7,7,
{24}1,2,3,4,5,6,7,8,1,2/8,3/7,4/6,5,,,
{8}3x/7x,2/8,2/8,1,2/8,3/7,4b>5[16:12]/6b<5[16:12],,,,,,,,,,
{24}B3/5,,,
{8},6-3[16:3],,1/6,,2h[4:1],,4,,8/6,,1>7[16:11]/C,,,,
B4,,B6,,8-4[16:3],,B2,,1,,2/5,,1/6h[2:1],
{16},,E2,B2,B3,B4,5xV37[2:1]b,,
{8},,,7V15[2:1]b,,,,6pp3[16:9]*pp3[16:9],,,,E5,,B2,,
1h[2:1],3,4,5,6h[2:1],1,2-4[16:3],2,2,6,7<4[4:1],,7,3,2,,
1x/B4,2,3/5,6,7x/E3,6,5/1,2,3x/B6,,4z8z4[16:6]b/5s1s5[16:6]b,,4b/5b,,,,
2x/7x,3,4/6,7,8x/B2,7,2/6,3,4>1[16:3],5,6,7,8>3[16:3],7,6,5,
4-7[16:3]b,,2x-5[16:3]b/4b,,2b/4x-8[16:3]b,,2xw6[16:3]b/4b,,2b,,,,Cf,,,,
2>5[16:3],,2,1,8-4[16:3],,8,3,2-6[16:3],,2,4,5q8[16:7],,5,,4>8[16:6],,,,
7p4[16:9]b,,,,E1/B8/B1,,,,
2,,1/8,,7<4[16:3],,7,8,1-5[16:3],,1,6,7-3[16:3],,7,5,4w8[16:3]b,,4,,
2xV85[16:8]/6xV83[16:8],,,,,,,,4pp4[16:8]b*qq4[16:8]b,,,,,,,,
3/5,2,1x/B7,8,7/1,6,5x/B2,4,3/5,6,7x/B4,8,1>5[16:3]/2>6[16:4],,,,
3bh[4:1],4,5,6,6bh[4:1],3,4,5,7bh[4:1],6,5,4,3bh[1:1],2,1,8,7,6,5,4,,
E5,E6,E7,E8,E1,E2,E3,E4,E5,6,7,8bp8-4[1:2]b*q8-4[1:2]b,
E
