&title=Kissing Lucifer
&artist=ETIA
&first=0.07
&des=Neopharmazz
&lv_5=14
&inote_5=(170){16},,,,,,,,,,,,,,,,
1b>1s5[4:14]*s5[4:5]/5b,,,,,,,,,,,,,,,,
,,,,,,,,,,,,,,,,
,,,,,,,,,,,,,,,,
,,,,,,,,,,,,,,,,
4h[16:3]/8h[16:3],,,,,,,,,,,,,,,,
3h[16:3]/7h[16:3],,,,,,,,,,,,,,,,
2h[16:3]/6h[16:3],,,,,,,,,,,,,,,,
1h[16:3]/5h[16:3],,,,,,,,,,,,,,,,
4b/8b^5[2:1],,,,,,,,5pp2[4:4],,,,,,,,
,,,,1,,,,8,,1,,,,,,
5/1^4[2:1],,,,,,,,4qq7[4:4],,,,,,8,,
,,8,,8,,,,1,,8,,,,,,
7^2[2:1]/5,,,,,,,,2qq7[4:4],,,,,,,,
,,,,4,,,,5,,4,,,,,,
3v8[8:6]/6v1[8:6],,,,,,,,,,,,,,,,
,,,,,,,,Chf[4:2],,,,,,,,
,B7,E8,,B2,E2,,B8/B1,,E4,B3,,E6,B6,,B4/B5,
,B6,E7,,B1,E1,,B7/B8,,E3,B2,,E5,B5,,B4/B3,
,B8,E1,,B3,E3,,B1/B2,,E5,B4,,E7,B7,,B5/B6,
,E8,B8,,E2,B1,,B4/B5,,E4,E3,E2,E1,E8,E7,E6,
7,B2,E2,,7/B7,E8,,E1/D1,7,E4,B3,,7/E6,B6,,E5/D5,
2,B7,E8,,2/B2,E2,,E1/D1,2,E6,B6,,2/E4,B3,,E5/D5,
8,A3,B3,,8/A6,B6,,B1/B8,8,A7,B7,,8/A2,B2,,B5/B4,
1,D3,E3,,1<5[4:1]*>5[4:1]/D7,E7,,E1/E2,{32},,,,A7/A3,D7/D4,A6/A4,D6/D5,{16}A5,,,,
3bh/6bh,,,,24,,,,75,,,,34,,,,
8xh/2xh,,,,56,,,,25,,,,74,,,,
8xh/1xh,,,,76,,,,54,,,,32,,,,
8xh/4,,,,26,,,,7xh/3^8[8:1],,,,6,5,4,,
6xh/3,,7,8,4,,2,1,5xh,,7,8,5,,2,1,
4xh,,5,8,6,,4,1,3xh,,5,1,7,,4,8,
2xh,,2,,7,,7,,1xh,8,1,8,{32}1,2,3,4,5,6,7,8,
{16},,,,E2/D2,,E8/D8,,E4/D4,,E6/D6,,Cf,,,,
2b^5[8:1]/6b,,,,7,,8,,1q4[8:4]/5-8[8:1],,3,,1/5b,,,,
,,,,,,,78,,,34,,12,8,7,6,
5z1[8:1]/3,,,A2,,A4,,,5s1[8:1]/7,,,A8,,A6,,,
5z1[8:1]/3,,,A2,,A4,,,57,,1bh[8:1]/3bh[8:1],,,8bh[8:1]/6bh[8:1],,,
2b/4b^7[8:1],,,,8,,1,,2-7[8:1]/6p3[8:4],,4,,2b/6,,,,
,,,,,,,17,,,35,,4,4,4,4,
4s8[8:1]/5,,,A7,,A5,,,4z8[8:1]/3,,,A1,,A3,,,
4z8[8:4]*s8[8:4]/5,,,,,,,,,,,,,,,,
{64}8bv1v2v3v4[16:19]*v7v6v5v4[16:19],71,62,53,{16}4,,,,,,,,,,,,,,,
,,,,,,,,,,,,18,2,3,4,
{12}5^2[8:1]/6,E7,,E8,,E1,5x^8[8:1],E4,,E3,,E2,
5-1[8:1],E7,,E8,,E1,5xh[12:2],,{24}4,5,{12}4,3,2,
{16}1-7[8:1]*-3[8:1],,,,1w5[8:1],,,,1qq5[8:4]*pp5[8:4],,,,1b/B1f,,,,
,,,,,,,37,,,26,,8,7,6,5,
{12}4^7[8:1]/3,E3,,E2,,E1,4x^1[8:1],E6,,E7,,E8,
4,{24}3,4,{12}3,5,6,7,8w4[16:1],,,8x,,,
{16}1h[4:3]/2h,,,,,,,,,,,,6b>8[2:1],,,,
,,,,8p5[8:3],,,,7-5[8:1],,6,,,,,,
7p6[2:1],,,,,,,,6^3[4:1],,,,3<1[2:1],,,,
,,,,1q4[8:3],,,,2-4[8:1],,3,,,,,,
2q3[2:1],,,,,,,,3^6[4:1],,,,6-8^1-3[2:1],,,,
,,,,3q6[8:3],,,,7-2[8:1],,6,,,,,,
,,,,8b-4[8:1]/1b,,,,8,,2b-6[8:1],,,,,,
4b-8[8:1],,,,,,6b-2[8:1],,7,,1,,3,,,,
4xV26-8[4:11]/5xV73-1[4:11]/E5f,,,,,,,,,,,,,,,,
,,,,,,,,,,,,,,,,
,,,,,,,,,,,,,,,,
,,,,,,,,,,,,,,,,
8x,,,,7x,,,,6x,,,,5x,,,,
4x,,,,3x,,,,2x,,,,1x,,,,
8x/7x,,,,7x/6x,,,,6x/5x,,,,5x/4x,,,,
4x/3x,,,,3xq6[8:2]*>6[8:2]/2x,,,,,,,,,,,,
2/A6,,,,7/A3,,,,6/A2,,,,3/A7,,,,
1/A5,,,,8/A4,,,,5/A1,,,,4/A8,,,,
2/B6,,,,7/B3,,,,6/B2,,,,3/B7,,,,
1/B5,,,,8/B4,,,,5w1[8:1]/B1,,,,,,,,
74,,4,,63,,3,,52,,2,,41,,1,,
25,,5,,36,,6,,47,,7,,58,,8,,
3,7,3,7,2,6,2,6,1,5,1,5,{32}8pp4[8:3],7,6,5,4,3,2,1,
{16},,,,,,,,7,5,6,,2,4,3,,
8bqq5[4:5]/1bpp4[4:5]`A8/A1/B8/B1/Cf/B5/B4/A5/A4,,,,,,,,,,,,,,,,
,,,,,,,,,,27,,8/1^6[16:1],2,3,4,
{64}5x/1,E5,B4,B3,{16}E3,,,1-6[16:1]/5,,3,,{64}5x/1,E5,B4,B3,{16}E3,,,1-5[16:1]/5,,3,,
{64}5x/1,E5,B4,B3,{16}E3,,,1p5[16:1]/5p1[16:1],,3,,1b^4[16:1]/5b^8[16:1],,,,1bV75[16:1]/5bV31[16:1],,,,
1b/5b,,,,2^7[8:1]/7,,3,,{32}2^5[8:1]/4x,B4,C,B8,{16},,{32}2^7[8:1]/8x,B8,C,B4,{16},,
{32}2/4x,B4,C,B8,{16},,5-2[8:1]/6-1[8:1],,74,,56,,,,8^3[16:1],7,6,5,
{64}4x/8,E5,B5,B6,{16}E7,,,8-3[16:1]/4,,6,,{64}4x/8,E5,B5,B6,{16}E7,,,8-4[16:1]/4,,6,,
{64}4x>5[8:5]/8,E5,B5,B6,{16}E7,,,,,,,,,,,,,,,
Ch[16:23]/B8/B1/E1f,,B2,A2,,,B3,A3,,,B4,A4,,,B5,A5,
,,B6,A6,,,B7,A7,,,5pp1[4:1],,4v2[8:1],,,,
4b/Cf,,,6,4-2[16:1],,73,,{64}4/6x,B6,C,B2,{16}A2,,6,4-1[16:1],,73,,
{64}4/6x,E7,B7,B8,{16}E1,,6,4-2b[16:1]*-1b[16:1],,73,,4b-6b[16:1]*-7b[16:1],,,,4-8b[16:1]*w8b[16:1],,,,
4b,,,,2,8,8,8,1,7,7,7,8z4[8:1],6,6,6,
8,,,,7,1,1,1,8w4[16:1],2,2,2,8b,,,,
{64}5/3x,E3/E6,B2/B6,B1/B7,{16}E1/E8/A8,,3,5-8[16:1],,26,,{64}5/3x,E3,B2,B1,{16}E1,,3,5,,26,,
3,4,3,4,2,5,2,5,1,6,1,6,8,7,8,7,
Chf[4:7],,,,,7b^4[1:0],,,7b,,,,,8b^3[1:0],,,
8b,,,,,7b^4[1:0],,,7b,,,,1^4[16:1],,,,
Ch[16:13]/1b,,,,,2b^5[1:0],,,2b,,,,,1b^6[16:1],,,
2b,,2b,,,4b/5b,,,3b/6b,,{24}1,8,1,{16}8,2,7,3,
6b-1[8:1],,1b-5[8:1],,,5b,,,3b-8[8:1],,8b-4[8:1],,,4b,,,
6b^1[8:1],,1bq6[8:1],,,5b,,,3b^8[8:1],,8bp3[8:1],,,4b,,6b,
6b,,3b,,7b,7b,,2b,2b,{32}8b,1b,{16}8b,2b,7b,{32}1b,8b,{16}1b,7b,
2b,,5,,4,4,,36,,2,7,1,{32}8,7,6,5,4,3,2,1,
{16}8/4-6[16:1]*-2[16:1],,,,4b-7V15[1:4]*-1V73[1:4]/A4f,,,,,,,,,,,,
,,,,,,,,,,,,,,,,
,,,,,,,,,,,,,,,,
,,,,,,,,,,,,,,,,
,,,,,,,,,,,,,,,,
{32}B2,B3,B4,B5,B6,B7,B8,B1,E2,E3,E4,E5,E6,E7,E8,E1,A1,A2,A3,A4,A5,A6,A7,A8,1-5[1:0],2,3,4,5,6,7,8,
{16},,,,,,,,,,,,,,,,
,,,,,,,,,,,,,,,,
E
