&title=lip ripples
&artist=橋本みゆき
&first=0
&des=GAHOU
&lv_5=14
&inote_5=(146)
{1},
{16}5h[4:1]/4,,,,2,,,,4/3,,,5/4,,,6/5h[4:1],,
{16},,{24}7,6,5,{16}4,,2h[8:1],,1,2h[8:1],,4,,2,1h[8:1],,
{16}2>5[8:1],,,,1,,,,7/6,,,6/5,,,5h[4:1]/4,,
{16},,3,4,3,,5,4,5,,2,4,2,,5/4,,
{4}8b<5[8:1]/5h[4:1],,1b>4[8:1]/4h[4:1],,
{4}7b-4[8:1]/5h[4:1],,{8}2b-5[8:1]/4h[4:1],,,{24}8,7,6,
{4}5b-8[8:1]/1b-4[8:1],,{16}2,5,4,5,2,5,4,5,
{16}3,,4/2,,1,1h[8:1],,4,3<6[8:1],,5/2,,7,,,,
{16}8,,6/5,,8,8h[8:1],,4,7,5,6,5,8,3,4,3,
{16}8,,1/7,,6,6h[8:1],,8,7>2[8:1],,6/1,,3,,,,
{16}1,4,3,4,1,6,5,6,1q5[8:1]*p5[8:1],,8/2,,,,,,
{16}6,,5/7,,8,8h[8:1],,5,6<1[8:1],,4/7,,2,,,,
{16}3,,4/2,,3,3h[8:1],,5,2,4,3,4,1,6,5,6,
{16}2,,8/3,,4,4h[8:1],,1,2v5[8:1],,3/8,,6,,,,
{16}8,5,6,5,1,3,4,3,8,1,6,5,7,1,4,3,
{16}8<5[8:1],,,2,8,,1>4[8:1],4,,4,1,,6,,8h[4:1],,
{16}5,,2h[4:1],,4,,6V47[16:3],1>4[8:1],,,,,,,,,
{16}8-4[8:1],,5,7,,,1h[4:1],,3,,5h[4:1],,7,,4h[8:1],,
{16}2bw6[8:1],,,,,,,,7,5,,3,4pp3[4:1],,5/2,,
{16}3,,,,1,,2,3,2<8[8:1],,1,,5<7[8:1],,6,,
{16}1,,3,3h[16:3],2<4[4:1],,4,,2b,,,,1,,,,
{16}6,7-4[8:1]/5,,4,4,,3,,1-5[8:1],5,,5,1,,7,,
{16}8h[8:1],,5,6,5,,8h[8:1],,5,6,5,,8,4,6,2,
{2}4/1pp8[16:12],5h[4:1],
{2}6pp4[16:12],4h[4:1],
{2}3pp8[16:12],8h[4:1],
{2}7<2[4:1],{4}1-5[8:1],8,
{4}7h[4:1]/5,8,2h[4:1]/4,{8}1-5[8:1],,
{4}1w5[8:1]/6,1,{24}8/1,,,6,5,4,3b,,,,,,
{16}8/2,,7,8,6,8,7,,3-8[8:1],1,,1,3,,6,,
{16}1,5,4,5,1,6,5,6,4b/7bp2[8:1],,,,,,,,
{16}8b/3b,,6-1[8:1],1,,,4b,,2b,,6-1[8:1],1,,,4-1[8:1],,
{16}2,,7-3[8:1],,5,,2,,8,,6/2>5[8:1],6/2,,,,,
{16}8,,5/6,,7/1,,5<8[8:1],4,,,2-6[8:1],,1,,7,,
{16}1-5[8:1],,3>8[8:1],,4,,3,,4w8[8:1],,,,4,,,,
{16}6/8,,5-1[8:1],,4,,3/5,,2-5[8:1],,3,,,,8,8,
{16}1-6[8:1],,2,,,,4,,5h[8:1]/3,,1,,6/4h[8:1],,8,,
{16}5/2,,1>4[8:1],4,1,,5,,7,,8<5[8:1],5,8,,4,,
{16}2,,4/1,4/1,,5/8,5/8,,1,4,3,4,1,7,5,7,
{16}1b/6b,,3-8[8:1],8,,,5b,,7b,,3-8[8:1],8,,,7-4[8:1],,
{16}5,,1-5[8:1],,3,,8V27[16:4],,6-3[8:1],,4,4,,,,,
{16}7/1,,5,,2/8,,4-1[8:1]/3,4/3,,,7-3[8:1],,8>6[4:1],,2,,
{16}8b,,,,8,,7/1,,3,4,3,4,2,8,2,8,
{16}3/7-4[8:1],,,4,7,,3,,2-6[8:1]/4,,,5,2,,7,,
{8}1b/2b,3b/4b,5b/6b,7b/8b,{16}6-1[8:1],1,,1,6,,3,,
{16}8/4,,6/5,,4/3,,5/1-4[8:1],5/1,,,6-2[8:1],,5<3[4:1],,3,,
{16}5b,,,,8,,,,6,5,7,5,6,5,8,5,
{16}6,,5/7,,8,8h[8:1],,5,6V47[16:3],,4/7,,2,,,,
{16}1,,3/4,,1,1h[8:1],,5,2,4,3,4,1,6,5,6,
{16}1,,8/2,,3,3h[8:1],,1,2V83[16:3],,3/8,,6,,,,
{16}7,5,6,5,8,3,4,3,8,1,6,5,7,1,8,3,
{16}4,,5/2,,1,1h[8:1],,4,3V14[16:3],,5/2,,7,,,,
{16}6,,4/7,,6,6h[8:1],,4,7,5,6,5,8,3,4,3,
{16}7,,1/6,,5,5h[8:1],,8,7V16[16:3],,6/1,,3,,,,
{16}2,4,3,4,8,6,5,6,1,8,3,4,2-5[8:1],8,1,6,
{16}2b,,,,8,4,6,2,,7,8,5,4,8,1,4,
{16}3,,{48}8b/2b,3,4,5,,,,,,7b/1b,6,5,4,,,,,,5b/1b,6/2,7/3,8h[48:117]/4h[48:117],,,,,,,,,,,,,,,,,,,,,
{1},,
