&title=夜のうた
&artist=きくお; 初音ミク
&first=0
&des=ひゅー
&lv_5=13+
&inote_5=(256)
{4},,,,
{4}4h[4:1]/3,2,,4h[4:1]/5,6,,1h[4:1]/2,3,,5h[4:1]/6,7,,
{4}8h[4:1]/7,5,,4h[4:1]/3,1,,6h[4:1]/8,2,,2h[4:1]/4,6,,
{4}3/4-6[4:1],2h[4:1],,7-5[4:1]/4,3h[4:1],,
{4}1/4-6[4:1],2h[4:1],,7-5[4:1]/4,3h[4:1],,
{4}1-3[4:1]/4,5h[4:1],,4-2[4:1]/8,7h[4:1],,
{4}8<5[4:1],5>2[4:1],2-8v6-4[4:3],8b,,,
{4}1V38[4:2],3,,5V74[4:2],7,,3V14[4:2],1,,7V58[4:2],5,,
{4}4V26[4:2],2,,7V51[4:2],5,,2V84[4:2],8,,5V37[4:2],3,,
{4}2-5-1[4:2],5,,6-2-7[4:2],2,,3-8-4[4:2],8,,1-6-2[4:2],6,,
{4}4-1-5[4:2],1,,7-4[4:1],4,,1>5[4:1]/5p1[4:1],,,47,65,34,
{4}2h[4:1]/5,{8}4,3,4,3,25,,34,,65,,
{4}7h[4:1]/4,{8}5,6,5,6,74,,65,,34,,
{4}2-5[4:1]/5,{8},1,1,,{4}4/8-4[4:1],{8},1,1,,
{4}3>8[4:1]/5<8[4:1],,,17,56,34,
{4}1b/2b^5[4:1],{8},8,8,,4/6,,3/5,,2/4,,
{4}1/7^4[4:1],{8},8,8,,2/5,,3/6,,4/7,,
{4}8x-6[4:1]/5x-1[4:1],,,2x^4[4:1]/5xp1[4:1],,,4bxqq1[8:7]`8bxqq5b[8:7],,,,,,
{4}3h[4:1]/8,{8}1,2,1,2,38,,21,,78,,
{4}6h[4:1]/1,{8}8,7,8,7,61,,78,,21,,
{4}3-8[4:1]/6,{8},4,4,,{4}2/6-2[4:1],{8},5,5,,
{4}8b/4bpp7[8:7]*qq1[8:7],,,,,,
{8}17,,2,4,3,,64,,7,5,8,,{4}1p4[8:3]/8,7,6,5-1[4:1],3,2,
{8}82,,7,5,6,,35,,2,4,1,,{4}8q5[8:3]/1,2,3,4-8[4:1],6,7,
{16}17,2,3,4,5,6,7,8,1,2,3,4,{4}56,7,84,
{16}82,7,6,5,4,3,2,1,8,7,6,5,{4}43,2,15,
{4}7h[4:1],5h[4:1],1h[4:1],2h[4:1],4h[4:1],6h[4:1],8>7[8:7],
{4},,B1,C,B5,3bpp1>2[4:22]/A8f,,,,,,,,,,,,,,,,,,,,,,,,
{8}
(242)A8,,A1,,A2,,
(242)E1,,E2,,D3,,
(235)B8,,B2,,A3,,
(225)C,,B3,,D4,,
(210)E6,,E5,,A4,,
(202)A3,,A4,,A5,,
(194)E6,,C,,E2,,
(187)3/4,,6,5,6,,
(45)
{4}8b<4[16:1]/4bq8[16:1],,
{4}5bp1[16:1]/1b>5[16:1],{16},,,
{4}8bx/4bxw8[16:1],{16}4x,,,
{8}2bx>5[16:1]/6bx,{16}8xh[8:1],4x,
(49){4},
(128)
{4}4xh[4:2],,{32}A2,D3,A3,D4,A4,D5,A5,D6,{8}4-2[8:1]/A6,,
{8}6-4[8:1],,1,,2^5[8:1]/8,,5,,4/7p3[8:1],,3,2,1^4[8:1],,1/7,,
{8}8-6[8:1],,5,4,3-5[8:1]/5,,6,7,4qq1[8:3]/8qq5[8:3],,,,,,C,
{8}2-5[8:1],5-8[8:1],5-2[8:1],,,7,6-1[8:1],1-4[8:1],4,3,,6,
{8}7-4[8:1],4-1[8:1],4-7[8:1],,,2,3-8[8:1],8-5[8:1],5,6,,3,
{8}2-5[8:1],5-8[8:1],5-2[8:1],,,7,6,{16}1/5,,2,,
{8}3b-5[8:1]/7,3,5,6,4/7h[8:1],3,2h[4:1],4h[8:2],
{8},6,{16}8,8,5,,{8}6h[8:1]/1,5,3h[8:1]/6,4,
{8}2/5-8[8:1],3,4/5,1,{32}2,3x,,,6,5x,,,3,4x,,,{8}7,
{8}2b/8b,{16}3,5,4,6,5,,4/7,,{32}8,7,6,5,{16}4b/2hb[16:3],,,{32}4,5,
{8}6h[8:1],{32}1,2,3h[8:1],,,,5,6,7h[8:1],,,,2,3,4h[8:1],,,,6,7,8h[8:1],,,,3,4,5h[8:1],,
{32},,6,7,8h[8:1],,,,3,4,5h[8:1],,,,6,7,8h[8:1],,,,5,4,3h[8:1],,,,8,7,6h[8:1],,,,
{32}4,3,2h[8:1],,,,7,6,5h[8:1],,,,1,2,3,,{16}6,4,5,,2-4[12:1]/4,,1,8,2,,
{16}6-4[12:1],,7,8,6,,1-3[12:1],,2,8,1,,7,,
{8}46,25,1-5[8:1]/4,2,7^4[8:1]/1,8,1s5<5b[16:10]/7,2,1b,,,Cf,,,
(256)
{4}8qq3[4:3]/2,{8},3,3,,5h[4:2],,,,,,3,4,2-4[8:1],,2/8,,6,5,7-5[8:1],,3/7,,
{4}2>5[8:3],4<7[8:3],6<2[2:1],8,5,7,{8}4/8,,,6,5<2b[8:3],,3h[8:3],,,,,,
{8}3,4,2,1,2,1,3,4,2,1,2,1,4,5,8,7,8,7,4,5,8,7,8,7,
{4}1/6,2/5,3/4,3/8,4/7,5V36[2:1]/6,3,2,1,2/7,3/6,4/5,
{4}1pp6[4:3]/7,{8},6,6,,4h[4:2],,,,,,6,5,7-5[8:1],,7/1,,3,4,2-4[8:1],,6/2,,
{4}7<4[8:3],5>2[8:3],3>7[2:1],1,4,2,{8}5/1,,,3,4>7b[8:3],,6h[8:3],,,,,,
{8}6,5,7,8,7,8,6,5,7,8,7,8,5,4,1,2,1,2,5,4,1,2,1,2,
{4}8^5[4:1],1,2,3-7[4:1],4,5,6-1[4:1],1,2,38,
{16}D8/2h[4:1],A7,D7,A6,D6,A5,D5,A4,
{16}1,8,7,6,5,4,3,2,1,8,7,6,{8}5-1[4:1]/8-4[4:1],,
{8},,,,2,4,3^1[8:1],,3/5,,7,5,6^8[8:1],,4/6,,
{4}3>8[8:3],1<6[8:3],7<3[2:1],5,8,6,{8}25,,,3,4-8b[8:2],,1h[8:3],,,,1>6[8:3],,
{4}1/6,,8<3[8:3],8/4,,1<2[8:5],1/5,{8},8x,7x,6x,5x/1xh[8:2],,{4},6<3[8:3],
{4}6/2,,1>6[8:3],1/5,,8>7[8:5],8/4,{8},1x,2x,3x,4x-1[8:2]/8xh[8:2],,{4},,
{8}8b<5[4:1],,,3,3,,8b>4[4:1],,,6,6,,1b<4[8:3]/3,,,2,2,,8b>5[8:3]/6,,,7,7,,
{4}2b<4b[4:4],B5,B6,B7,B8,B1,2h[8:2],{8}4h[4:1],,6h[4:1],,8pp2[4:1]*qq6[4:1],,,,,,
{4}8-6[4:1],4-2[4:1],,5-7[4:1],1-3[4:1],,8-5[4:1],4-1[4:1],,4v7[4:1],8v3[4:1],,
{4}8p4[4:1],4p8[4:1],,5q1[4:1],1q5[4:1],,8-3[4:1],4-1[4:1],,4-7[4:1],8-5[4:1],,
{4}6-8[4:1],2-4[4:1],,1v7[4:1],5v3[4:1],,6-1[4:1],2-5[4:1],,1qq7[4:1],5qq3[4:1],,
{4}6-3[4:1],2-7[4:1],,3q7[4:1],7q3[4:1],,{4}7bp5b[8:7],,A1,A2,A3,A4,
{8}6h[8:3],5h[8:3],,,,,3h[8:3],4h[8:3],,,,,
{8}6h[8:3],5h[8:3],,,,,3h[8:3],4h[8:3],,,,,
{8}8h[8:3],6h[8:3],,,,,1h[8:3],3h[8:3],,,,,
{8}5h[8:3],8h[8:3],,,,,2h[8:3],5h[8:3],,,,,
{8}6h[8:2],5h[8:3],,7x,,,3h[8:2],4h[8:3],,2x,,,
{8}6h[8:2],5h[8:3],,7x,,,3h[8:2],4h[8:3],,2x,,,
{8}8h[8:2],6h[8:3],,1x,,,2h[8:2],4h[8:3],,3x,,,
{8}7h[8:2],5h[8:3],,6x,,,3h[8:2],5h[8:3],,4x,,,
{4}4h[4:1],,,4h[4:1],,,4h[4:1],,,4h[4:1],,
E
