&title=今、歩き出す君へ。
&artist=Ceui
&first=-0.01
&des=君という奇跡
&des_5=君という奇跡
&lv_5=13
&inote_5=(87){4},,,,5/4,
{16}4,5,{8}3h[8:1],{16},,,,4,5,{8}3h[8:1],
{16},,,,4,5,{8}3h[8:1],{2}6>3[32:5],
{4}2/4,{16}3<6[32:5],4,{8}2,,,{4}7/5,
{8}1qq4[8:3],,,4<8[16:3]*>1[16:3],,,,,2b/8b,
{16}6>3[32:3],5,,,{8}6b/2h[4:1],,3,6/5,3,
1b/7b,{16}6<1[32:3],5,,,{8}6b/2h[4:1],,3,6/5,3,
{4}8/2>5[32:3],{8}2/1,{16}7,5,{8}6,2/4,{16}3,5,{8}1h[8:1],
{4}3<6[8:1],2q7[8:1],{2}1v8[8:1],
{4}7h[8:1],5/6h[4:1],2h[8:1],4/3h[4:1],
5h[8:1],8/6h[4:1],1h[8:1],4/2h[4:1],
4h[4:1],5>2[8:1],8<5[8:1],1h[4:1],
4h[4:1],6>3[8:1],{2}1q5[8:1]*qq7[8:1],
{8}6/4,6h[8:1],{4}8,{8}5/3,3h[8:1],{4}1,
6/4<7[8:1],2/4>1[8:1],{8}4/8<5[8:1],7,{4}6/8,
{8}7/5,5h[8:1],{4}4,{8}4/2,4h[8:1],{4}5,
5/7>2[8:1],7/3<6[8:1],{8}4/3,{16}8,8,1,7,{8}3,
4/6p2[8:1],7,{16}8-4[8:1],,,7,{8}8,5,{4}7/1<6[8:1],
{8}3/1>4[8:1],2,{16}1/5qq5[32:7],,,7,{8}5<3[4:1],6,,,4-1[8:1],
3,{16}8>3[8:1],,,7,{8}8,6,{4}5/7p3[8:1],
{8}4,2,{16}1/4<7[8:1],,,2,{8}4,3,{4}5/8<4[8:1],
{8}3q7[8:1],2,{16}1-5[8:1],,,2,{8}1,4,{4}2/8>3[8:1],
{8}6/8<5[8:1],7,{16}8/4pp4[32:7],,,3,{8}4qq3[6:1]*<8[6:1],2,,,5>2[8:1],
7,{16}1q6[8:1],,,8,{8}1,7,{4}5/7p3[8:1],
{8}4,2,{16}1/4<7[8:1],,,2,{8}4,3,{4}5/8>3[32:3],
{8}8b/2b,4h[8:1],{16}6,2h[8:1],,8,4<2[16:3],6,{8}2,{4}4/3,
{8}5b>2[32:3],8,{16}5/7-3[32:3],,,2,{8}1>4[32:3]/7<4[32:3],8,1/7,{16}2,4,
{8}1b>5[8:1],5qq6[16:3],6,{16}8,8,,1,{8}1,7/4<7[32:3],{16}5,2,
4/1,,,4,{32}4h[32:3],,,6h[32:3],,,{16}1h[16:1],{8}3<6[32:3],{16}2,7,{8}3,8,
5/7h[8:1],{16}1,8p3[8:1],,3<6[32:3],,8/1,,,2,2,{8}7h[8:1],{16}4,6,
{8}5b>2[32:3],8,{16}5/7-3[32:3],,,2,{8}1>4[32:3]/7<4[32:3],8,7/1p8[32:5],{16}2,4,
{8}1,6,{32}1/7h[32:3],,,3h[32:3],,,{16}1h[16:1],{8}4qq5[16:3],{16}5,5<2[16:3],,7,,,{8}8b,
6,{16}3,6,5p4[16:3],8,,3,{8}5,1h[8:1],6h[8:1],
7>2[32:3],{16}6,5,7<3[8:1],,,3qq1[128:25],{2}7bpp1[8:1],
{8}8b/2b,7/3,4/6,{16}3,5,1,7,{8}4h[8:1],{16}8-4[32:3],7/3,,,{8}1b/8b,
3,{16}8-4[32:3],1,,1,{8}8,3,{4}4/2-6[32:3],
{8}2/1,7,{16}2-6[32:3],8,,8,{8}2,5,{4}6/8<5[32:3],
{8}8/2,1,{16}5,3h[8:1],,8,{8}2h[8:1],6,{4}7/5<8[32:3],
{8}5/3,4,{16}7,5h[8:1],,8,{8}2h[8:1],{16}4,2,7-3[32:3],5,,,{8}7b/8b,
2,5/7-3[32:3],{16}1,1,{8}7,4,{4}3/1-5[32:3],
{8}1/8,6,3/1-5[32:3],{16}7,7,{8}1,6,{4}4/2qq3[4:1],
{8}6/2,5,4,{16}3,5,{8}1h[8:1],{16}4,2,{8}8h[8:1],{16}4,6,
{8}1b,2/4,{16}7,5,8,3,1,2,5,3,{8}7p2[8:1],8,
{4}7b/1b>6[16:3],8<3[16:3],2V46[16:3],7V53[16:3],
4,8<3[4:1],{8}3>8[16:3],1<6[16:3],2,4,
5qq1[16:5],{16},,,,8,7,{2}6p4[4:1],
{4}3>8[8:1]*<6[8:1],3,7w3[8:1],7>7[16:13],
,,,,{2}4h[4:1]/6h[8:3],
3h[4:1],
4h[4:1]/2h[8:3],5h[4:1],
6h[8:3]/5h[4:1],4h[4:1],
{8}3,5,4,6,{2}5h[4:1],
{4}6b/3b<6[6:1],7p2[6:1],1>6[4:1],{8}6,7,
{4}8bv3[8:1],4>6[4:1],{2}6pp1[8:3],
{4}5b,{16}2/4,,,6,{8}5,7/4,2/8,{16}3,4,
{8}2/5,7/4,1/8,3/5,{16}4/6<2[6:1],4/6q3[48:5],,,,,,,{8}5b-1[12:1],
8,{16}5/7<4[32:3],,,1,{8}8q4[12:1]/7p3[12:1],1,8/7,{16}2,4,
{8}1b>5[8:1],5qq6[16:3],6,{16}8,8,,1,{8}1,7/4>6[16:3],{16}5,2,
4/1,,,4,{32}4h[32:3],,,6h[32:3],,,{16}1h[16:1],{8}3<6[12:1],{16}2,7,{8}3,8,
5/7h[8:1],{16}1,8p3[8:1],,3<6[32:3],,8/1,,,2,2,{8}7h[8:1],{16}4,6,
{8}5b-1[32:3],8,{16}5/7<4[32:3],,,1,{8}8q4[32:3]/7p3[32:3],1,7/8<1[16:3],{16}2,5,
{4}8,{32}7h[32:3],,,3h[32:3],,,{16}1h[16:1],{8}4qq5[16:3],{16}5,5<2[16:3],,7,,,{8}8b,
6,{16}3,6,5<3[64:11],8,,3,{8}5,4h[8:1],5h[8:1],
7>2[32:3],{16}6,5,7<3[8:1],,,3qq5[32:45],{2}7bpp5[32:43],
{1},{4},{16}3,
4,{8}2h[8:1],7,4,6,5,
{4}6/4,{16}3,4,{8}2h[8:1],{4}8h[4:1],{8}2,8,
1/7,{16}3,4,,6,{8}5h[32:9],{64},,,,,,,,,,(43.5)8,7,{16}6pp4[16:17],{64},,,,,,,,,,5,4,{16}3qq5[16:13],
