&title=ツギハギスタッカート
&artist=初音 ミク
&first=0.07
&des=KuSA
&wholebpm=139
&first_5=0
&lv_5=12
&inote_5=(139)
{1},,
{8}
5/6h[2:1],,,,5h[2:1],,,,4h[2:1],,,,3p6[4:1],,4,,
5h[2:1],,,,4h[2:1],,,,3h[2:1],,,,2<7[4:1],,3,4,
5h[2:1],,,3,3h[2:1],,,1,1h[2:1],,,5,5p1[4:1],,
8,7,6V42[8:3],,4,,1>6[8:3],,8,8qq8[8:3],,,,,,
4,4b/5b,,
6-1[8:1],5,4,,3-8[8:1],4,5,,6-1[8:1],5,4,3>6[4:1],3,4,5,,
7-4[8:1],8,1,,2-5[8:1],1,8,,7-4[8:1],8,1,2p4[4:1],2,1,8,,
6-8[8:1],6,5,4,3-5[8:1],3,2,1,8-2[8:1],8,7,6,5,4/5,3/6,2/7,
1b,1-5[8:1],,6,6-2[8:1],,4,4-8[8:1],,8,7,6>3[8:1],3<6[8:1],,,,
5h[1:3]/2h[32:1],,3h[32:1],,2h[32:1],,3h[32:1],,
1,,2,,1,,2,,8b,,1b,,8b,,1b,,7-2[8:1],,5p8[4:1],,,,,,
4h[1:3]/7h[32:1],,6h[32:1],,7h[32:1],,6h[32:1],,
8,,7,,8,,7,,1b,,8b,,1b,,8b,,2q3[2:1],,1<5[4:1],,,,,,
7/4,6,5,4/3,,2,3,4/5,,7,6,5bpp8[1:1]/4bqq1[1:1],,,,,,,,,,,,,,
1,1b,,
6<1[8:1]/8-4[8:1],,6/8,,3/1<6[8:1],,1/2,3q5[8:3],,5,6,7,
8h[8:1],,2h[8:1]/6h[8:1],,
2/6,5,4,3,3/6,4,5,4/5-8[8:1],,1,2,3,4-8[8:1]*-2[8:1],,4,,
3>8[8:1]/1-5[8:1],,3/1,,6/8>3[8:1],,8/7,6p4[8:3],,4,3,2,
1h[8:1],,3h[8:1]/7h[8:1],,3b/7b,,
6,5/6<1[4:1],,1>4[4:1],,4>6[8:3],,5,,5h[8:3],,,
4,,
2>5[8:1]/4-7[8:1],,2/4,,5-2[8:1]/7,,5/6,7qq4[8:3],,4,3,2,1<6[8:1]*>4[8:1],,1,,
2/8,1,8,7,6/1,7,8,1q5[8:1]/8,,5,6,7,8-5[8:1]*-3[8:1],,8b,,
7<4[8:1]/5-2[8:1],,7/5,,4-7[8:1]/2,,4/3,2pp5[8:3],,5,6,7,8w4[8:1],,8,,2b/6b,,
7,8/7<4[4:1],,4>1[4:1],,1>7[8:3],,8,,8h[8:3],,,1b,,
7<5[8:1]/4>2[8:1],,7/4,,7<5[8:1]/4>2[8:1],,7/4,,7/4,6,3V14[4:1]*pp4[4:1],3,,,,,
7h[2:1],,5,,2h[2:1],,4,,8h[2:1],,6,,1,,8/1,,
2-4[8:1]/5-7[8:1],,2/5,,2-4[8:1]/5-7[8:1],,2/5,,2/5,3,4V25[4:1]*pp5[4:1],5,,,,,
2h[2:1],,4,,7h[2:1],,5,,1h[2:1],,8,,7,,6b/3b,,
{16}
5/4,,3,4,2,,1,,4,,4-6[8:1],,,,3,,,,8/1,,7/2,,6/3,,4,5,3,4,2,,2,,
6V42[4:1],,,,4,,,,1>5[4:1],,,,3,,,,8V64[4:1],,,,6,,,,1b,,,,8b,,,,
4/5,,6,5,7,,8,,5,,5-3[8:1],,,,6,,,,1/8,,2/7,,3/6,,5,4,6,5,7,,7,,
3V57[4:1],,,,5,,,,8<4[4:1],,,,6,,,,2-5[8:1],,,,7-4[8:1],,,,1-5[8:1],,,,5b,,,,
{8}
6h[8:3]/4h[8:3],,,,6/4,,,,2h[8:3]/4h[8:3],,,,2-4[8:1]/4,,6,7,
8h[8:3]/4h[8:3],,,,8/4,,,,2h[8:3]/6h[8:3],,,,2/6-1[8:1],,1,2,
3h[8:3],,,4,5h[8:3]/2,,,4,6h[8:3]/3,,,5,7/4,6,5,4,3,3-6[8:1],,7,7-2[8:1],,4,4-1[8:1],,8,7,6>3[8:1],3<6[8:1],1b,1b,,
