&title=COLORS
&artist=FLOW
&first=0.02
&des=永遠の魔女は愛を知りたい
&lv_5=13
&inote_5=(136)
{1},,
{1}Cf/6b<3b[8:5],
{1}3b-6[8:5]*-6[8:5],
{1}2b>8[8:5]/7b<1[8:5],
{16}3,,{32}7x,6x,{16}5x,2,,{32}6x,5x,{16}4x^7^4[4:1]/8x^3^8[4:1],,,,,,,,,
{8}Cf/B2/B7/E3/E7,,8/1,,6/5,7-4[8:1],,1-5[8:1],,3-8[8:1],,5-1[8:1],,7,,8pp4[16:6],8h[8:3],,,,7^2[8:1],,4/7,3p6[16:3],,3/4,5p8[16:3],5p4[16:5],,,,
{8}2x,1h[4:1],,8,7h[4:1],,5-1[8:1],,4/5,,3,2/4,6,5/7,1/2,3/8,4bqq1[8:5]/7bqq8[8:5],
{1},5pp8[8:5]/2pp1[8:5],
{48}2/E7,E6,E5,,,,{8},1-6[8:1],,6-4[8:1],,8-3[8:1],,3-7[8:1],,2-5[8:1],,6-2[8:1],,8<1[8:7],,
{4}4,3,2,8<1[8:7],4,3,2,8,
{48}7/E3,E4,E5,,,,{8},8-3[8:1],,3-5[8:1],,1^6[8:1],,5-1[8:1],,7-3[8:1],,4^7[8:1],,2q5[8:5],,
{4}8,7,6,{8}3,4x/2xh[4:1],
{8},6xqq3b[8:3],4b/8hb[8:4],,,,,
{8}7-4[8:1],5/6,1,,3^8[8:1],2/4,5,,
{8}7-4[8:1],4/6,1,,3^8[8:1],2/5,4,,
{8}7-4[8:1],5/6,8,,3^8[8:1],4/6,5,,
{8}6^1[8:1],5,4-7[8:1],3-8[8:1],2x,,,6,
{8}2-5[8:1],4/3,8,,6-1[8:1]/5-1[8:1],7,5/6,,
{8}2-6[8:1],4/3,8,,5-1[8:1]/7,4/6,3,,
{8}2q8[4:1],3/5,,7,6^3[8:1],,6/1pp8[8:3],,1/7,,7,6,5qq8[8:3],,,,,
{8}1b-7-2-6-3-5[8:13],,,,,,,,
{8},,,,,,,,
{8}3qq5[8:4]/6pp4[8:4],,,,,,,
{64}E5f,B4/B5,Cf,B1/B8,E1f,,,,{8},,,,,
{8}5/4,3/6,2/7,{32}1b/8b,2,3,4,5,6,7,8,{8}1-5[8:1],,
{8}1/6,7-4[8:1],8,2-6[8:1],2,1-5[8:1],1,8-4[8:1],8,7-3[8:1],7,2,
{8}1w5[8:1],,1x,,6-1[8:1]/2,,3/6,5-1[8:1],
{8},7/5>6[8:3],6,3/5,,,,
{8}1-5[8:1]/5,3x,7-4[8:1],7,2-6[8:1],3,7-4[8:1],7,
{8}1-5[8:1],2x,7-4[8:1],7,3-8[8:1],2,7-4[8:1],7,
{8}1,1^4[8:1]*^6[8:1],,1x,,2/8,7,6,5^3[8:1],,6p2[8:1],,7v1[8:1],,
{8}4,3,2,{32}8b/1b,7,6,5,4,3,2,1,{8}8-4[8:1],,
{8}8/3,2-6[8:1],1,5x^2[8:1],7,1-6[8:1],7,5x^2[8:1],7,8-3[8:1],6,5,
{8}4w8[8:1],,4x,,3^8[8:1]/7,,6/3,4-8[8:1],
{8},2/4qq5[8:3],3,6^1[8:1]/4,,,,
{8}8-4[8:1]/4,6x,2-5[8:1],2,7-3[8:1],6,1w5[8:1],,1b,
{8},7,6/8,2,1/3,5/6,4/7,3b<1[8:5]/8b<2[8:5],
{8},,,,,,,,
{8}4/2,1/7,6/5,3/2,8-4b[8:1]/7,4-8b[8:1]/3,,,
