&title=Nijirate Fanatics
&artist=yukitani
&first=0.3
&des=ク〇譜面三銃士を連れてきたよ。
&lv_5=14
&inote_5=(210)
{16}3h[4:1],,4,,6h[4:1],,5,,3h[4:1],,4,,6h[4:1],,5,,
{16}3h[4:1],,4,,6h[4:1],,5,,3h[4:1],,4,,6h[4:1],,5,,
{16}2h[4:1],,3,,7h[4:1],,6,,2h[4:1],,3,,7h[4:1],,6,,
{16}2h[4:1],,3,,7h[4:1],,6,,2h[4:1],,3,,7h[4:1],,6,,
{16}1h[4:1],,2,,8h[4:1],,7,,1h[4:1],,2,,8h[4:1],,7,,
{16}1h[4:1],,2,,8h[4:1],,7,,1h[4:1],,2,,8h[4:1],,7,,
{16}3h[4:1],,1,,6h[4:1],,8,,3h[4:1],,1,,6,,,,
{32}1b/8b,2x/7x,3x/6x,4xh[32:21]/5xh[32:21],{16},,,,,,,,,,,,,,
{16}2h[4:1],,,,3h[4:1],,,,5h[4:1],,,,6h[4:1],,,,
{32}1x,2x,3x,4x,5x,6x,7x,8x,1x,2x,3x,4x,5x,6x,7x,8x,1xw5b[8:1],2x,3x,4x,5x,6x,7x,8x,1b,,,,,,,,
{16}7,8,7,,2,1,2,,1-4[8:1]/8-5[8:1],,1/8,,1b/8b,,,,
{16}1-6[8:1],,,,8,,8,,7-4[8:1],,7,,5,,,,
{16}5-2[8:1],,,,4,,4,,3-8[8:1],,3,,1,,,,
{16}2-5[8:1],,,,3,,3,,4-7[8:1],,4,,5,,,,
{16}6-1[8:1],,6,,6,,8,,8-3[8:1],,8,,1,,,,
{16}2-6[8:1],,,,2,,7,,5-1[8:1],,4,,3,,,,
{16}7-3[8:1],,,,7,,2,,4-8[8:1],,5,,6,,,,
{16}6-1[8:1],,3-8[8:1],,6,,3,,7-2[8:1],,2,,7,,,,
{16}4b,,,,4,,,,4,,,,4,,,,
{32}8/4,7,6,5,4,3,2,1,8,7,6,5,4,3,2,1,8,7,6,5,4,3,2,1,8,7,6,5,4,3,2,1,
{24}8b,7,6,5,4,3,2,1,8,7,6,5,4-8[8:1],3,2,1,8,7,6,,,,,,
{16}5,,5,,4,,4,,5-2[8:1]*-8[8:1],,5,,5,,,,
{16}1h[4:1],,,,7-4[8:1],,B1,,7-2[8:1],,B8,,,,,,
{16}3,4,3,4,3-8[8:1],,B5,,3-6[8:1],,B4,,3,,,,
{16}7h[4:1],,,,1-6[8:1],,B7,,1-4[8:1],,E8,,1,,,,
{16}8,1,8,1,8-5[8:1],,B3,,8-3[8:1],,B2,,8,,,,
{16}2/7,,,,1-6[8:1],,8,,1-4[8:1],,C,,1,,,,
{16}6,5,6,5,6-3[8:1],,5,,6-1[8:1],,C,,6,,,,
{16}3/8,,,,1-4[8:1],,8,,1-6[8:1],,2,,1,,,,
{16}1-3[8:1]/8-4[8:1],,,,1-5[8:1]/8-6[8:1],,,,1/8,,,,1b/8b,,,,
{16}1-5[8:1],8,1,,1/8,,8,,7h[8:3],,6,,5,,,,
{16}8-4[8:1],,1,8,1,,1,,2h[8:3],,3,,4,,,,
{16}6<1[8:1],5,6,,5/6,,5,,4h[8:3],,8,,7,,,,
{16}3>8[8:1],,4,3,4,,4,,5h[8:3],,1,,2,,,,
{16}2-7[8:1],3,2,,2/3,,4,,5,,6h[4:1],,5,,,,
(190){16}7-2[8:1],,6,7,6,,5,,4,,3h[4:1],,4,,,,
(170){16}5-1[8:1],4,5,,5,,4,,3,,2h[4:1],,1,,8,,
(160){16}7,,7h[4:1],,5,,5,7,5,8,5,1,5,2,5,3,
(155){16}5bq2[4:2]*-8[4:1],,,,,,,,,,,,,,1q8[4:2],,
{16},,,,,,,,,,,,7pp8-5[4:3],,4v7[4:1],,
{16},,,,,,,,,,,,,,,,
{16}4,5,4,5,4,5,4,,5,,4,,5-1[8:1],,,,
{16}5,,,,3h[4:1],,C,,B3,,,,6h[4:1]/2,,C,,
{16}B6,,,,4/8,,,,7h[4:1],,E6,,5h[4:1],,E7,,
{16}7h[4:1],,,,E5,,E4,,3h[4:1],,,,E5,,E6,,
{16}6h[4:1],,,,1,,,,8h[8:1]/2,,B2,,8h[8:1]/2,,B2,,
{16}1h[4:1],,,,B1,,B5/B4/E5/D5,,5h[4:1],,,,B7,,B3,,
{16}3h[4:1],,,,5,,,,6/5,,4/5,,6/5,,4/5,,
{16}5/7h[4:1],,,,D5,,D4,,2h[4:1],,,,D4,,D5,,
{16}6h[4:1],,,,8,,,,1/7,,2/8,,1/3,,2/4,,
{16}3/5,,,,4h[32:11]/7h[32:15],,,,,,{32}3x,2h[32:10],{16},{32}6x,5h[32:14],{16},,,
{32}3x,4h[32:14],,,,,,,6x,7h[32:10],,,,,,,5x,6h[32:6],,,8x,1h[32:6],,,5x,4h[32:7],,,8x,7,,,
{32}6h[32:15],,,,,,,,2h[32:15],,,,,,,,5x,4h[32:1],,5x,6h[32:11],,,,3x,4h[32:1],,3x,2h[32:7],,,,
{32}7x,8h[32:7],,,3x,4h[32:11],,,,,,,,,,,6-1[8:1],,5,,6,,7,,6,,,,,,,,
{16}3h[8:1],,4,3,1-7[8:1],2,1-3[8:1],2,1-5[8:1],,,,,,,,
{16}3,4,3,4,2/5,,1/6,,2/5,,1/6,,2/5,,1/6,,
{16}7/8,,7/8,,1/8,,1/8,,1/2,,1/2,,2/3,,2/3,,
{16}3/4,,3/4,,4,5,4,5,4/5,,,,4qq4[4:2]*p7<4[4:2],,,,
{16},,,,,,,,,,,,1b,,,,
{16}5h[4:4],,,,,,,,,3x-6-2-7-1[4:2],,,,,,,
{16},,,,,,2h[4:2]/7h[4:2],,,,,,,,,,
{32}3bx/6bx,4bx/5bx,{16}D5f,,,,,,,,,A7/D8/A8/D1/A1/D2/A2/B2/C/E5,,,,,,
{16},6-1[8:1],,5-1[8:1],,4-1[8:1],,,,,,,,,,,
{16},,,,4h[32:1],5h[31:1],4h[30:1],5h[29:1],4h[28:1],5h[27:1],4h[26:1],5h[25:1],4h[24:1],5h[23:1],4h[22:1],5h[21:1],
{16}4h[19:1],5h[18:1],4h[17:1],5h[16:1],4h[17:1],5h[18:1],4h[19:1],5h[20:1],4h[21:1],5h[22:1],4h[23:1],5h[24:1],4h[25:1],5h[26:1],4h[27:1],5h[28:1],
{16}4h[29:1],5h[30:1],4h[31:1],5h[32:1],4h[23:1],5h[26:1],4h[23:1],5h[19:1],4h[21:1],5h[24:1],4h[32:1],5h[16:1],4h[16:1],5h[16:1],4h[19:1],5h[25:1],
{16}4h[20:1],5h[16:1],4h[30:1],5h[26:1],4h[30:1],5h[19:1],4h[32:1],5h[26:1],4h[31:1],5h[32:1],4h[30:1],5h[17:1],4b,,,,
{16}8>8>8>8>8>8>8>8>8[4:16],,,,4<8>8>8>8>8>8>8>8[4:15],,,,8>8>8>8>8>8>8>8[4:14],,,,4<8>8>8>8>8>8>8[4:13],,,,
{16}8>8>8>8>8>8>8[4:12],,,,4<8>8>8>8>8>8[4:11],,,,8>8>8>8>8>8[4:10],,,,4<8>8>8>8>8[4:9],,,,
{16}8>8>8>8>8[4:8],,,,4<8>8>8>8[4:7],,,,8>8>8>8[4:6],,,,4<8>8>8[4:5],,,,
{16}8>8>8[4:4],,,,4<8>8[4:3],,,,8>8[4:2],,,,4<8[4:1],,,,
{16},,,,,,,,1v6[12.9#128:1]*v4[12.9#128:1],,,,8h[32:87],,,,
{16}4h[8:1],,,,3h[8:1],,,,2h[8:1],,,,1h[8:1],,,,
{16}2h[32:47],,,,,,,,,,,,,,,,
{16},,,,,,,,,,,,,,,,
(175){16}4b,,,,3,,,,2,,,,1,,,,
(190){16}8b,,,,7,,,,6,,,,5,,,,
(210){16}4b,,3,,2,,1,,8,,7,,6,,5,,
{16}4,3,2,1,{32}8,7,6,5,4,3,2,1,{16}8w4[8:1],,,,8b,,,,
{16}2h[4:1],,,,4-1[8:1],,4,,2-5[8:1]/4,,2,,8h[4:1],,,,
{16}1-4[8:1],8,1,8,1,,8,,7h[4:1],,5,,5,,,,
{16}8h[4:1],,,,6-3[8:1],,6,,8-5[8:1]/6,,8,,2,,,,
{16}3-1[8:1],4,2,4,3,,5,,6h[4:1],,5,,5,,,,
{16}7h[4:1],,,,1-5[8:1],,1,,1/7-3[8:1],,B6,,7/8,,,,
{16}2-6[8:1],1,2,1,2,,8,,7<4[8:1],,1/8,,7,,,,
{16}2h[4:1],,,,8-3[8:1],,8,,8/5-1[8:1],,B4,,5/7,,,,
{16}8,2,8,2,8,2,8,2,{32}8b,7,6,5,4,3,2,1,{16}8b/4b,,,,
{16}1h[4:1],,,,5,,5,,1,2,3,4,5,,5,,
{16}4,3,2,1,8,,8,,8,7,6,5,4,,3,4,
{16}3,,2/5,,1,,7,8,7,,2/6,,3,,5,4,
{16}5,6,7,8,1,,2/1,,3/4,,5/6,,4/7,,2,8,
{16}2,,1,,1/8,,7/8,,6/7,,5/6,,4/5,,3/4,,
{16}3,2,1,8,7,,7,,3,4,5,6,7,,1,8,
{16}1,,2/7,,3/6,,4,4,4,,3/5,,2/6,,8,1,
{16}8,1,8,1,7,2,7,2,{32}6,5,4,3,2,1,8,7,6,5,4,3,2,1,8,7,
{16}6b/5b,,,,4-1[8:1],,4,,5-8[8:1],,5,,5,,,,
{16}1v6[8:1]*v4[8:1],,,,1,,,,5xv8[8:1]*v2[8:1],,,,5,,,,
{16}1-4[8:1],1,1,,5-8[8:1],,5,,1-6[8:1],,1,,7,,,,
{16},,1/8,,1-4[8:1]/8-5[8:1],,,,1<6[8:1]/8>3[8:1],,,,1/8,,,,
{16}1,1,1,,8/2,,8/2,,7/3,,7/3,,6/4,,6/4,,
{16}4/5,,5,5,5,,4/6,,3/7,,1/8,,2/7,,3/6,,
{16}4,4,4,,4/5,,4/5,,4,4,4,,4/5,,4/5,,
{16}4/5,,4,4,4,,4/5,,4,4,4,4,4-8b[8:1],4,4,4,
{48}4bpp8[4:6]*qq8[4:6],Cf,
