&title=スリープフリークホリディ
&artist=55ymtk
&first=0.35
&des=9V_Y2-6
&lv_5=13
&inote_5=(120){4}
,,,,,,E3,,B4,,B5,,E7,,E4h[4:7],,E6h[4:5],,B4h[4:3],,B5h[4:1],,3qq5[2:1],6,6,6,6p4[2:1],4,3h[4:1],,2qq5[2:1],6,6,6,6q4[2:1],4,
{16}3h[8:2],,,,,,,,
{8}4/2pp4[2:1],,6,,6,,6,,6p4[2:1],,3,,2h[4:1],,,,3qq5[2:1],,5,,6,,7,,8V26[2:1],,2,,3-5[8:1],,,,7h[2:1],,,,5h[2:1],,,,4h[2:1],,,,Ch[4:1],,,,
{16}2xpp4[8:1]/6x,,3,4,,,7V58[4:1],,5h[4:1],,,,,,3h[8:1],,7xp1[4:1],,,,1xq7[4:1],,,,A2h[8:1],,D3,A3,,,8,,5>2[4:1],,,,2<7[32:7],,,,6xp4[4:1],,E6,,6xh[8:1],,,,7<4[4:1],,,,4<7[4:1],,,,A2h[8:1],,D3,A3,,,8,,3x/7xqq5[8:1],,6,5,,,2V41[4:1],,4h[4:1],,,,,,6h[8:1],,2xq8[4:1],,,,8xp2[4:1],,,,A7h[8:1],,D7,A6,,,1,,4x<5-8[4:1],,,,8x>1-4[4:1],,,,E1,,C,,E5f,,,,3h[8:1],,E4,B4,,,4,,5h[8:1],,E5,B4,,,4,,3h[8:1],,E4,B4,,,4,,5xh[8:1],,E5h[8:1],,6x,,,,7h[8:1],,B6,B5,,,4,,3h[8:1],,B4,B5,,,6,,7h[8:1],,B6,B5,,,4,,3x-5[8:1],,A6h[8:1],,3x,,,,7h[8:4],,5,,4,,3,,2pp4[8:1],,5,5,,,5,,6h[8:4],,5,,4,,3,,2pp4[8:1],,5,5,,,6,,7xh[8:1],,5-7[8:1],,4,,3,,2xh[8:1],,4-2[8:1],,5,,6,,7x-5[8:1],,5,,4x-2[8:1],,3,,5x-7[8:1],,,,,,,,2h[8:4],,4,,5,,6,,7qq5[8:1],,4,4,,,4,,3h[8:4],,4,,5,,6,,7<4[8:1],,4,4,,,3,,2xh[8:1],,4-2[8:1],,5,,6,,7xh[8:1],,5-7[8:1],,4,,3,,2x-4[8:1],,4,,5x-7[8:1],,6,,5x/4x-8b[8:1]*-2b[8:1],,,,Cf,,,,1x/7x,,3,4<7[8:1],,2,2,4,1-5[8:1],,E8,E3,,6,6,,7x<2[4:1],,28,,1x>7[4:1],,1,,B1h[8:1],,,,C,,,,8x<4[4:1],,,,4x>8[4:1],,,,8x<4[4:1],,8,,4x,,3,,2xpp4[8:1],,4,,5x-7[8:1],,6,,5x/A3h[8:1],,D4,A4,,,8,,7x/3x,,6,5>2[8:1],,7,7,5,8-4[8:1],,E2,E7,,3,3,,2x>7[4:1],,71,,8x<2[4:1],,8,,B8h[8:1],,,,Ch[8:1],,,,1x>5[4:1],,,,5x<1[4:1],,,,1x>5[4:1],,1,,5x,,6,,7bh[8:1],,5,,46,,3,,2h[8:1],,4,,35,,6,,5/7-5[8:1],,57,,4-2[8:1],,,,5-1[8:1]/4,,,,2,,3,,4xh[8:1],,E8,E7,,3,4,,5xh[8:1],,E2,E3,,6,5,,5x/7xV51[8:1],,8,,4x,,3,,2x-5[8:1]/8x-4[8:1],,,,,,,,7h[8:1],,5,,46,,3,,2h[8:1],,4,,35,,6,,5x/7x,,4,,2x/4x,,5,,5x/7x,,6,,2x/4x,,3,,E5h[8:3],,E7,,C,,E3,,E1h[8:3],,E3,,C,,E7,,E6h[8:3],,E8,,E1,,E2,,E3h[8:3],,E4,,E5,,E6,,
{8}E7h[4:4],,E3h[4:3],,B6h[2:1],,B3h[4:1],,B5h[4:1]/B4h[4:1]/E5h[4:1],,,,5<8b[8:1]/4>1b[8:1],,5/4,,Cf,,,,,,,,E3/E4/B3,,E7/E6/B6,,2xh[8:1],
{48}A3,D4,A4,D5,A5,D6,
{16}A6f,,,,1x>5[4:1],,,,5<1b[4:1],,,,1x>5b[4:1],,1,,5x,,6,,7xqq5[8:1],,5,,4x-2[8:1],,3,,4x/A6h[8:1],,D6,A5,,,1,,2x/6x,,3,4<7[8:1],,2,2,4,1-5b[8:1],,E8/B8,E3/B2,,6,6,,7x<2b[4:1],,28,,1x>7b[4:1],,1,,B1h[8:1],,,,Ch[8:1],,,,8x-6[8:1],,1,,2x-4[8:1],,3,,5x-1b[8:1],,6x-8b[8:1],,5x,,6x,,,,A2,,A3,,A4,,E8h[8:1]/A5,,,,E2h[8:1]/4xw8[8:1],,,,4b>5b[2:3],,,,
{4},,,,,,,
{16}2xh[8:1],,B3,B4,,,5,,6xh[8:1],,B5,B4,,,3,,2xh[8:1],,B3,B4,,,5,,6x-4[8:1],,A3h[8:1],,6x,,,,2h[8:4],,4,,5,,6,,7qq5[8:1],,4,4,,,4,,3h[8:4],,4,,5,,6,,7qq5[8:1],,4,4,,,3,,2h[8:1],,4-2[8:1],,5,,6,,7h[8:1],,A4,,6,,,,A4h[8:3],,,A5h[16:3],,,E5,,,,B6/B3,,Ch[4:8],,,,A2,,,,
{4},A3,,A4,,A5,,,,
E
