&title=inkar-usi
&artist=DIA
&first=0
&des=Jinsokyo2
&lv_5=13
&lv_6=14
&inote_5=(102)
{2},,2q6[4:1],7<4[4:1],{4}1,8/2,7/3,{8}6/5,5/4,4h[4:1]/3,2,{4}1-5[4:1],5,6,7/4,
5h[4:1]/2h[4:1],{24},,,,,3x,4x,,4x,{8}3x,6h[4:3]/1bx-4[8:1],2,1,,5-1[8:1],4,5,,
8-4[8:1]/2h[8:3],7,8,,5/3,6,7/5,4,8<5[8:1]/3h[4:3],1,8,,4-1[8:1],5,4,,
7h[4:3]/2-5[8:1],1,2,,4-8[8:1],3,4,,3h[4:3]/8bx-5[8:1],7,8,,4v7[8:1],5,4,,
1-5[8:1]/6h[8:3],2,1,,4/6,3,2/4,5,1>4[8:1]/6h[4:3],8,1,,5q1[8:1],4,5,,
2h[4:3]/7-4[8:1],8,7,,5-1[8:1],6,5,,7h[4:3]/1bx-6[8:1],2,1,,5-8[8:1],4,5,,
6<1[8:1]/2h[8:3],5,6,,8/2,7,6/4,5/3,6h[4:3]/2-5[8:1],1,2,,4-7[8:1],3,4,,
5<8[8:1]/1h[4:3],4,5,,7-3[8:1],8,{4}7,5/2bqq6[2:1],,7h[12:5],{24},,,,5,6,
{8}3p6<3[4:3],,,,,,4,5,{4}6pp4[2:1],,1h[12:5],{24},,,,5,3,{2}7>5[8:3],{24}1h[24:5],,,
,,6,5,,5,4,,4,{4}3b-8[8:1],E7/3,6-1[8:1],6/E3,2-5[8:1],B8/2,7-4[8:1],7/B1,2>5[8:1],
B6/E6/2,7<4[8:1],7/B3/E4,1-5[8:1],B6/B7/1,8-4[8:1],B2/B3/8,5b/3b,6b/2b,{24}7b/1b,,,,,
8,1,,1,7,,7,{8}2b-7[8:1],,6-3[8:1]/2,,6/1,,4/2,3,5-1[8:1]/4,6,5/4-8[8:1],3,5/4,{24},,
7,1,,1,8,,8,{8}2-5[8:1],,6-1[8:1]/2,,6/4,,7/3,2,8-4[8:1]/1,7,8/1-5[8:1],2,8/1,,7/4,
6/3,5>7[4:1]/2,,1h[8:3],,,6,7/8-4[8:1],1,8/2-7[8:1],3,6-3[8:1]/2,5,6/1,,5/2,3,
7b/4b-1[8:1],,8-5[8:1]/4,,8/2,,4/3,5/2,6b/1b>6[4:1]b,,,,8b<3[4:1],,,,2h[12:5],,B7/E7,
{24},8,1,7h[12:5],,,,,,B3/E4,,,,2,1,{4}3<2[8:3],5h[2:1],,{8}3,6/4,7h[12:5]/5,,B3/E3,
{24},4,5,3h[12:5],,,,,,B6/E7,,,,5,4,{4}6pp5>7[8:5],1h[4:3],,,6h[12:5],{24}B6/E6,,,,4,
5,3h[12:5],,,,,,B3/E4,,,,6,5,{4}7>6[8:3],1h[2:1],,{8}7,8/2,1/3,4/2,{4}5-1[8:1]/3,
7<4[8:1]/5,7/2q6[8:1],8<1[8:5]b/2,Cf,,,8xqq5[8:5]/4xqq1[8:5],,,,6b/2b,7b/3b,
{24}8b/4b,,,,,2,1,,1,8,,8,{8}7b-2[8:1],,3-6[8:1]/7,,3/8,,5/7,6,4-8[8:1]/5,3,
4/5-1[8:1],6,4/5,{24},,2,8,,8,1,,1,{8}7-4[8:1],,3-8[8:1]/7,,3/5,,2/6,7,1-5[8:1]/8,2,
1/8-4[8:1],7,1/8,,2/5,3/6,4<2[4:1]/7,,8h[8:3],,,3,2/1-5[8:1],8,1/7-2[8:1],6,
3-6[8:1]/7,4,3/8,,4/7,6,2/5-8[8:1],,1-4[8:1]/5,,1/7,,5/6,4/7,8pp5[8:3]/3qq6[8:3],,,,,
{24},,7,8,,8,1,,1,{8}2b<7[8:1],,6>3[8:1]/2,,6/8q4[8:1],,5>2[8:1]/8,6,7-3[8:1]/5,8,
7/1-5[8:1],2,1/3,{24},,3,4,,4,5,,5,{8}6v1[8:1],,6/2-5[8:1],,8<5[8:1]/2,,8/4v7[8:1],3,
4/2-5[8:1],1,8-5[8:1]*-3[8:1]/2,7,8,,6/4-8[8:1],5/3,4/2>1[4:1],,7h[8:3],,,2,
8-5[8:1]/3,1,8/2-6[8:1],1,4<7[8:1]*>1[8:1]/2,5,4,,8v5[8:1]/2v5[8:1],7/3,8b/2b,,
7v4[8:1]/1v4[8:1],,7b/1b,,5<7[8:1]/4q8[8:1],6/3,5bp1[8:1]/4b>2[8:1],,
5b<4[8:3]/4bq5[8:3],,5b/4b,,,,1b,
E
&inote_6=(102)
{1},{8}7h[8:3],,,{24}8,1,2,3h[8:3],,,,,,,,,1,8,7,{4}6h[4:1],5h[4:1],4h[4:1],{8}3,4/3,
5/4,6/5,7/4,{48},,,,6,5,{4}6,5/4,6pp4[8:3]/3qq5[8:3],6/3,{24},,,,,3,4,,6,{8}5,
1b/3h[4:1],8-4[8:1],7h[8:3],8,,5<8[8:1],4h[8:1],5,2h[4:1],1>4[8:1],8h[8:1],{48}1,,,,
8,7,{8}6,5/4,4/3,{48}5/2,,,,1,2,{8}6/3h[4:1],5-2[8:1],6h[8:3],5,,8<5[8:1],1h[8:1],
{48}8,,,,2,3,{8}4h[4:1],6-2[8:1],7h[8:3],6,,1<6[8:1],2h[8:1],{48}1,,,,2,3,{8}4h[4:1],
5-8[8:1],6h[8:3],5,,1-5[8:1],2h[8:1],{48}1,,,,2,3,{8}4h[4:1],8-4[8:1],7h[8:1],{48}8,,
,,7,6,{8}5,4/3,2/3,{48}1/2,,,,8,7,{8}6h[4:1]/5,4V68[8:1],3h[8:3],4,,1V35[8:1],
8h[8:1],{48}1,,,,8,7,{8}6h[4:1],3q7[8:1],2h[8:3],3,,8>3[8:1],7h[8:1],{48}8,,,,7,6,
{8}5h[4:1],4v1[8:1],3h[8:3],4,,8-4[8:1],7h[8:1],{48}8,,,,7,6,{8}5h[4:1],1-5[8:1],
2h[8:1],{48}1,,,,2,3,{8}4,5/6,7/6,{48}8/7,,,,1,2,{8}3h[4:1]/4,5V31[8:1],6h[8:3],5,,
8V64[8:1],1h[8:1],{48}8,,,,1,2,{8}3h[4:1],6>2[8:1],7h[8:3],6,,1,8/1,,7b/2bq6[4:1],E7,
,B7,8h[8:3],C,,{24}E2,7,7,{8}1h[8:3],B8/E8,,B6/E6,{24}2,4,3,5,4,6,5,7,4,6,3,5,
{8}1V73[4:1],E5,,B5,6h[8:3],E3,,{24}E2,5,5,{8}8>6[8:3],D5/E5,,B8/C,7h[24:5],{24},,5,
6,,4,5,,3,{8}4b/2b-5[8:1],5,6-1[8:1]/2,7,6/1,{24}2,3,4,{8}8/5h[8:1],7h[8:1],4-8[8:1],
3,4/2-5[8:1],1,7/2,{24},,6,5,,5,4,,4,{8}3-8[8:1],5,6-4[8:1]/3,7,6/1-6[8:1],2,
{4}4-8[8:1]/1,4/1>3[6:1]*>4[4:1]*>5[3:1]*>6[12:5]*>7[2:1]*>8[12:7],,,,1b-5[8:1],
1b<6[8:1]*>4[8:1],{24}1b,,,,,5,4-7[8:1],,3,4,,5,{8}4b-8[8:1],,4-1[8:1]/3-6[8:1],,4/3,
,8-3[8:1],3>8[8:1],8<5[8:1],5-1[8:1],4,3,2,{24},,8,1-5[8:1],,2,1,,8,{8}1-4[8:1],,
1<6[8:1]/3<6[8:1],,1/3,,4>2[8:1],2<8[8:1],8<6[8:1],6,5w1[8:1],5,5,,7-4[8:1]/3-6[8:1],
8/2,7b>6[4:1]/3b,,1h[8:3],,,7,8-6[8:1]/2,1-5[8:1]/3,8-4[8:1],1-3[8:1],8<5[8:1],1,8,,
4/2-6[8:1],1/3,8b-4[8:1]/2b>5[8:1],,8<5[8:1]/2-6[8:1],,8/2,,4w8[8:1]b/3,5/2,4b,,
6/5w1[8:1],,5b,,7/3,,8b/2b-5[8:1],,2-7[8:1],{24}1,8,7,6-1[8:1]/2,,,,,,6-3[8:1],,,5,4,
3,{8}6/2p4[4:1],,4<2[4:1],,,,5,6/4,7-1[8:1]/3,,7/2-6[8:1],{24}2,3,4,5-1[8:1]/2,,,,,,
8-3[8:1]/5,,,8,7,6,{4}5p4[4:1]/8,4>5[2:1]b,,,3-8[8:1],{24}3-6[8:1],,,4,5,6,
7-4[8:1]/3,,,,,,7-2[8:1],,,8,1,2,{8}7/3q5[4:1],,5<3[4:1],,,,4,5/4,6/5,7/6,
{4}7-3[8:1]/8-2[8:1],7-5[8:1]/8-4[8:1],7-3[8:1]/8-2[8:1],7<8[8:5]/8p7[8:5],,,,
{128}5x<1p3[8:5],1x>5p7[128:79]b,{64},{32},,,,,,,{4},,,8b>3[8:1]/4b<7[8:1],
8bp4[8:1]/4bp8[8:1],{24}8b/4b,,,,,2,1-6[8:1]*-4[8:1],,8,1,,2,{8}1b-5[8:1],,
6<1[8:1]/1>4[8:1],,6V42[4:1]/1,,2v5[8:1],1,8>3[8:1],8<5[8:1],8-4[8:1],8,8,{24},,6,
5<8[8:1]*>2[8:1],,4,5,,6,{8}5-1[8:1],,8>3[8:1]/5<8[8:1],,8V64[8:1],,3-7[8:1],
2-4[8:1],1-5[8:1],2-6[8:1],1-7[8:1],2,1,,7/5p4[4:1],4/2,5/4>6[4:1],,{24}E4/1h[4:1],
E3,E2,E1,E8,E7,{8},5/1,4-2[8:1]/2,5-1[8:1]/3,6/4-8[8:1],5-7[8:1],4V25[8:1],5,4,,
7>2[8:1]/6>3[8:1],8/5,7v4[8:1]/6,,7/1<6[8:1],,5pp4[4:1]/1,,4>5[8:5],3,2h[2:1],,,,,
{24},,3,5-8[8:1]/3>5[4:1],,5,4,,5,{8}5bV31[4:1]/3b,,8xp4[8:1],,8q2[4:1],,5<7[8:1],
5>3[8:1],5-8[8:1],5-2[8:1],5-1[8:1],5,5,{24},,8,8qq1[4:1]/1v4[8:1],,2,7,,1,
{8}8/1>7[4:1],,4-8[8:1],,4xV61[4:1],,1-5[8:1],2,3-1[8:1],3-5[8:1],3-7[8:1],3,3,,
6/8qq2[4:1],7/1,8/2>5[8:1]*>8[4:1],,{24}4h[4:1]/E3,E4,E5,E6,E7,E8,{8},1/3,7-3[8:1]/5,
4/2>5[8:1],7/1-6[8:1],2v5[8:1],1>3[12:1]*>5[6:1]*>7[4:1],2,1,,8w4[16:1],1,8b,,
1w5[16:1]b/2,,1b,,7<5[16:1]/2>4[16:1],8/1,7b-3[8:1]/2b-6[8:1],8/1,7b/2b,,{24}2b,4,3,
7,5,6,1-5[16:1],3,2,8,6,7,{48}1b,B1,Cf,B5,
E
