&title=好きな惣菜発表mai-Star
&artist=ンバヂ
&first=0.01
&lv_5=14
&des=我一不小心就
&inote_5=
(160){4},,,,E2,
E3,E4,E2f,
{2}1>5[4:1],{4}1,1,
{2}1>5[4:1],{4}1,1pp4[4:3],
,,,,{2}1>5[4:1],
{4}1,1,
{2}1>5[4:1],{4}1,1,
{2}1>5[4:1],{4}1,1pp5[4:3],
,,,,8,
1,{2}1,
{4}1-5[8:1],8-4[8:1],{2}7-3[8:1],
{4}6-2[8:1],5-1[8:1],{2}4-8[8:1],
{8}1p5[8:1],2,3,4,5p1[8:1],6,7,8,
8q4[8:1],7,6,5,5/4,{16}3,6,2,7,1,8,
{8}3,4,5,6,{4}7<4[8:1],{8}2,2,
,2,1,8,7,6,5,4,
{4}2,8q5[8:1]*>5[8:1],8,6pp2[2:1],
3,4,5h[4:1],8,
8>4[8:1]*<4[8:1],8p4[8:1]*q4[8:1],,6p3[2:1],
8,1,2h[4:1],3,
{8}3/4,1,5/6,8,3/4,1,5/6,8,
{4}4v2[4:1],2-7[4:1],{2}7v5[4:1],
{8}7-3[8:1],3-7[8:1],7<4[8:1],3x>8[8:1],{16},,,,,,,,1,
2,3,4,5,6,7,8,7,6,5,4,{8}3b,2h[8:1],
5,{16}5,4,{4}3,4h[8:1]/2h[8:1],4h[8:1]/2h[8:1],
{8}5,{16}5,4,{4}3,4h[8:1]/2h[8:1],4h[8:1]/2h[8:1],
{8}5,{16}5,4,{4}3,4h[8:1]/2h[8:1],4h[8:1]/2h[8:1],
{8}5,{16}5,4,{4}3,4h[8:1]/3h[8:1],4h[8:1]/3h[8:1],
{8}5,{16}5,4,{4}3,4h[8:1]/2h[8:1],4h[8:1]/2h[8:1],
{8}5,{16}5,4,{4}3,4h[8:1]/2h[8:1],4h[8:1]/2h[8:1],
{8}5,{16}5,4,{4}3,4h[8:1]/2h[8:1],4h[8:1]/2h[8:1],
{2}3<6[8:1],{4}8,8,
{8}1,8,{16}2,1,{8}3,5,4,{16}6,5,{8}7,
3,4,{16}4,5,{8}3,5b,7b,1b,3b,
8,1,{16}7,8,{8}6,4,5,{16}3,4,{8}2,
6,5,{16}5,4,{8}6,4b,2b,8b,6b,
1,1,6,6,3,3,2,2,
{16}7,8,6,8,{8}7,3,{16}4,3,5,3,{8}4,1,
{16}6,5,{8}6,{16}5,4,{8}5,{16}4,3,{8}4,{16}1,8,2,7,
{8}1,{16}2,1,{8}3,{16}7,8,{8}6,{16}4,8,{4}3,
1v6[16:1],{8}7,7v4[16:1],,6-2[16:1],,,{4}8v3[16:1],
{8}2,2v5[16:1],,3-7[16:1],,,4,
{16}5,1,,3,{8}7,{16}1/5,2/6,3/7,4/8,7,6,{8}5,
6,{16}2,7,,8-4[8:1],,1-5[8:1],,8,,1,,,,,2,
1,2,1,8,1,8,1,8,7,8,7,{4}8/1,
{16}6,5,6,5,4,5,4,5,4,3,4,3,{4}5/4,
{16}1,8,{8}1,3/6,{16}8,1,{8}8,3/6,{4}1/8,
{16}5,4,{8}5,7/2,{16}4,5,{8}4,7/2,{4}5/4,
{8}8/1-5[8:1],8,7/1>3[8:1],7,1-4[8:1],6,5,6,
8-4[8:1],1,2/8<6[8:1],1,8-5[8:1],3,{4}4b,
{8},3,3,4,{4}2h[4:1],{8}4,5,
{4}5h[8:1]/3h[8:1],4h[8:1]/2h[8:1],3h[8:1]/1h[8:1],{8}8>5[4:3],8h[8:9],
,,,,,,,,,,,,{4}1/2,
{8}2/4,2/4,
,3,3,4,{4}2h[4:1],{8}4,5,
{4}5h[8:1]/3h[8:1],4h[8:1]/2h[8:1],3h[8:1]/1h[8:1],{8}8-5-1-4-2[1:1],8h[8:9],
{1},{4},,,{16}1x/8x,
1x/7x,{8}1bx/6bx,
6h[16:7],{16}4,5,,4,,3,,2,8,1,{8}7,2/7,
{16}2,1,2,1,8,7,8,7,1,8,2,7,1,8,2,7,
4,5,3,6,4,5,3,6,3,4,3,4,5,6,5,6,
2,1,8,7,8,1,2,3h[16:5],,,,,{4}4b,
{16}2,1,{8}3,7/8,{16}5,6,,3,{8}4,{16}1,6,{8}1,
{16}7,8,{8}6,2/1,{16}4,3,,6,{8}5,{16}8,3,{8}8,
8-4[8:1],2,4-8[8:1],3,8-4[8:1],2,4-8[8:1],1,
8-4[8:1],2,{4}4,{2}4q1[8:1]/2v3[8:1],
{8}5,5,6,6,7,7,8,8,
{16}1,2,3,4,8,7,6,5,1b,2b,3b,4b,5b,6b,{8}7b,
{16}1,8,1,8,1,7,1,8,2,8,1,7,2,8,1,7,
1,8,3,8,1b,8,3,8,1b,8,3,8,1b,8,3,8,
1b,7,1,7,5,7,5,7,5,3,5,3,5,7,5,7,
2,6,4,6,2b,6,4,6,2b,6,4,6,2b,6,4,6,
2b,8,2,8,2,4,2,4,6,4,6,4,2,4,2,4,
3,7,2,6,1,5,8,4,7,3,8,4,1,5,2,6,
2,1,3,8,4,7,5,6,3,4,2,5,1,6,8,7,
1,5,3,7,2,6,4,8,{4}3b,4p8[8:1]/8p4[8:1],
4<7[8:1]/8>3[8:1],4-1[8:1]/8-5[8:1],4-7[8:1]/8-3[8:1],4p8[8:1]/8p4[8:1],
{2}4<7[8:1]/8>3[8:1],{8}4/8,3/7,{4}2q6[8:1]/6q2[8:1],
2<7[8:1]/6>3[8:1],2-5[8:1]/6-1[8:1],2-7[8:1]/6-3[8:1],2q6[8:1]/6q2[8:1],
{2}2<7[8:1]/6>3[8:1],{8}2/7,2/7,{64}8b/1b,7b/2b,6b/3b,5b/4b,
E
