&title=圈儿
&artist=坏枪/Kanaria
&first=0.07
&des=NaOH
&clock_count=4
&lv_5=13
&inote_5=(170)
{4},,,,(340),,(170)
5x/E2,5,5,5,B7/3,3,3,3,7/B3,7,7,7,1/B5,1,2-7b[8:1]/3-6[8:1],,
{4}A8/2xh[8:1],3xh[8:1]/E8/D8,{16}E7,,E1,B1/B8,B7/B2/C,,E6/B5/B4/E4,,
{4}A1/7xh[8:1],6xh[8:1]/E2/D2,{16}E3,,E1,B8/B1,B2/B7/C,,E4/B4/B5/E6,,
1xh[8:1]/8xh[8:1],,,,2xh[8:1]/7xh[8:1],,,,E8,E2,E6,E4,C,,4x,,
5h[4:2]/1h[4:1],,,,,,,,A1f,B1f,Cf,B5f,A5f,,,,
{8}
1x>5[4:1],,5<1b[4:1],,1>5[4:1],1,5<1b[4:1],,1>5[4:1],1,5<1b[4:1],,1>5[4:1],1,C,,
8x<4[4:1],,4>8b[4:1],,8<4[4:1],8,4>8b[4:1],,8<4[4:1],8,C,,E1/B8/B1,,B4/E5/B5,,
1x>5[4:1],,5<1b[4:1],,1>5[4:1],1,5<1b[4:1],,1>5[4:1],1,5<1b[4:1],,1>5[4:1],1,C,,
8x<4[4:1],,4>8b[4:1],,8<4[4:1],8,4>8b[4:1],,8<4[4:1],8,C,,E1/B8/B1,,B4/E5/B5,,
Ch[4:3],,,,,,,,
3xq4[4:1],,7,,7q8[4:1]*q8[4:1],,3pp3pp3pp3pp3[4:4],,,,,,,,C,,,
7h[4:1],,5,6,6,4,4,35,2,1v4[8:1]`1!v6[8:1],28,1v2b[8:1]*v8b[8:1],,,,
7xq8[4:1],,3,,3q4[4:1]*q4[4:1],,7pp7pp7pp7pp7[4:4],,,,,,,,C,,,
2h[4:1],,4,3,3,5,5,6V85b[4:2]*qq5b[4:2]/4,,,,,,,,
{8}3,3h[4:3],,{48}E8,B8,B1,E2f,,,,,,,,,E8,B7,B6,E6f,,,,,,,,,E8,B8,B1,E2f,,,,,,,,,
{8}7xp6[8:3],,1,1,,B2/E3/B3,,
{8}6,6h[4:3],,{48}E2,B1,B8,E8f,,,,,,,,,E2,B2,B3,E4f,,,,,,,,,E2,B1,B8,E8f,,,,,,,,,
{8}2xq3[8:3],,8,8,,B7/E7/B6,,
{8}3,3h[4:3],,{48}E8,B8,B1,E2f,,,,,,,,,E8,B7,B6,E6f,,,,,,,,,E8,B8,B1,E2f,,,,,,,,,
{8}7xp6[8:3],,1,1,,B2/E3/B3,,
{8}4h[4:1],,5,5,46,7,46,3,28,46,17,35,2b>5b[8:1]/8b<5b[8:1],,A2f/A8f,,
{16}
3x/7x,,6,4,5,,37,,8-6[12:1],,3-1b[12:1],,8-4[8:1],,3,,
8,,2>5b[8:1],,1,,2,,6,,3,4,2,,6,5,
7-4[8:1],,8,1,7,,2,,3,5,4,6,5,,37,,1-5b[8:1],,8-6[12:1],,1<3b[4:1],,8,,1,,,,C,,,,
6x/2x,,3,5,4,,62,,1-3[12:1],,6-8b[12:1],,1-5[8:1],,6,,
1,,7<4b[8:1],,8,,7,,3,,6,5,7,,3,4,
2-5[8:1],,1,8,2,,7,,6,4,5,3,4,,62,,8-4b[8:1],,1-3[12:1],,8>6b[4:1],,1,,8,,,,C,,,,
Cf/B1/B2/B3/B4/B5/B6/B7/B8,
