&title=メクルメ
&artist=篠澤 広
&first=0.039
&des=Rotifera
&lv_5=14
&inote_5=(160){4},,,,E6,
E5,E4,{12}E7,B7,B8,
{4}E1,{12}E3,,B6,{4}B5,B2/B3,
E7,C,E3,{12}E7,B7,B8,
{4}E1,{12}B2/B3,,E7,{4}E6,C/B2/B3,
E8,E1,E2,{12}E7,B7,B8,
{4}E1,{12}E3,B3,B4,{4}E5,C,
3xq5[2:1],,,7xp4[2:1],
,,{2}1xw5[8:1],
{8}B7/B6/Cf/B2/B3,,,2xh[4:1]/8xh[4:1],{16},,,,E7,E4,{8}5xh[4:1],
{16},,,,E2,E5,{8}3xh[4:1],,C,{24},,,E3,B2,B1,
{8}E1`7xh[4:1],{16},,,,E2,E7,E3,E6,{8}B4,,5xh[4:1]/3xh[4:1],
,,C,8xqq3[8:3],{16},,,,,,2x,3x,
{4}4bx,8h[4:1],{16}3,3,1,1,{4}2>5[8:1],
{16}6h[16:7],,,,,,,8x-5[8:1],{48},,,,,,,,,,,,,,,,,,{24}E7,B7,B8,
{8}E1,3,2xpp4[4:1],1,{2}8h[16:5],
{4}3h[8:1]/7h[8:1],{16}E8,E3,E7,E4,,,{8}Ch[4:1],,,{4}1b,
4h[4:1],{16}7,7,5,5,{4}6<1[8:1],
{16}2h[16:7],,,,,,,4xh[16:5],,,{8}3,{4}C,
{8}7/8,6,4,1/2,3,5,{16}1,8,1,8,
{8}2-6[8:1],7-3[8:1],,,,E1,,,6h[4:1],
8,4h[4:1],1,5h[4:1],7,3h[4:1],1,
4,2/8,5,1/7,{32}6x/2xh[8:3],5x,{16}4x,,,E4,E5,{8}E6,
3h[4:1],1,5h[4:1],8,4h[4:1],2,6h[4:1],8,
5,7/1,4,8/2,{32}3x/7xh[4:1],4x,{16}5x,,,{4}B6/B5,
{8}3h[4:1],1,7,{16}5,4,5,3,{8}5,2/6,4,
6h[4:1],8,2,{16}4,5,4,6,{8}4,3/7,4,
6x-4[8:1],4x,6,7x-4[8:1],4x,7,8x-4[8:1],4x,
8,1x-5[8:1],5xw1b[4:1],1,,,,,B6f/B5/D6/A6/2b>5[8:1],
1<6[8:1],2,1,4x-8[8:1],2-5[8:1],4,2,
7x,2-5[8:1],4,2<7[8:1],6>3[8:1],2,{4}6,
{8}4xh[8:1],8,6,2,7-5[8:1],8-4[8:1],{4}1-3[8:1],
{8},,E6,E5,E4,{16}E3,B2,{4}B1,
{8}7qq5[8:1],7,8>4[8:1],8,6w2[8:1],6,,,4qq2[8:1],
4,5<1[8:1],5,3w7[8:1],3,{32},,,,,,,,8x/7x,
1x/6x,2x/5x,4xh[32:5]/3xh[32:5],,,,,,,,,1x/2x,8x/3x,7x/4x,5xh[32:5]/6xh[32:5],,,,,,,,,{8}1-5[8:1],8-4[8:1],
1,8,,2/7,{32}E6,E5,E4,E3,E2,E1,E8,E7,{4}C,
{8}B3f/B4/D4/A3/7b<4[8:1],8>3[8:1],7,8,5x-1[8:1],7-4[8:1],5,7,
2x,7-4[8:1],5,7>2[8:1],3<6[8:1],7,{4}3,
{8}5xh[8:1],1,3,7,2-7b[8:1],1-5b[8:1],{4}8-3b[8:1],
B1f,{8}4h[8:1],1s5[4:1],,3xh,2xh,1xh,
,7<4[8:1],3,7,2-6[8:1],2,5,5,
7>1[8:1],1>3[8:1],3<5[8:1],5<7[8:1],,Ch[8:1],,,8-5b[8:1],
6,8,1-4[8:1],3,1,,2/6,
,8<6[8:1],{4}8>1>2[8:1],{8},4w8[8:1],{4}4,
,,,,,,{2}Ch[2:1]/5p4[4:5],
,Ch[2:1],
,Ch[2:1]/3q5[4:5],
,Ch[2:1],
,Ch[2:1]/7p4[4:5],
,Ch[2:1],
,Ch[2:1]/2qq5[4:5],
,Ch[2:1],
{4},8-4[8:1],{2}4/8,
{8},,,2h[8:7]/6h[8:7],,,,,,,,,2x/6x,
{16}4,5,{8}3,{16}5,4,
{8}6x,{16}4,5,{8}3,{16}5,4,{8}6x,{16}4,5,{8}3,{16}5,4,
{2}6x-3[8:1]*p2[8:1],{8}7x/1x,{16}6,4,{8}7,{16}3,5,
{8}2x,{16}6,4,{8}7,{16}3,5,{8}2x,{16}6,4,{8}7,{16}3,5,
{2}2xp6[8:1]*v5[8:1],{8}8x/2x,{16}3,4,{8}2,{16}6,5,
{8}7x,{16}3,4,{8}2,{16}6,5,{8}7x,{16}3,3,{8}5h[8:1],{16}4,4,
{2}7x-3[8:1]*-4[8:1],{4}Cf,{8}7/1,{16}6,6,
{8}4xh[8:1],{16}5,5,{8}3h[8:1],{16}1,1,{8}2xh[8:1],{16}8,8,{8}3h[8:1],{16}7,7,
{2}4xpp6[8:1]*qq2[8:1],{8}2x/8x,{16}3,3,{8}5h[8:1],{16}4,4,
{8}6xh[8:1],{16}8,8,{8}7h[8:1],{16}1,1,{8}6xh[8:1],{16}2,2,{8}5h[8:1],{16}3,3,
{2}4x<7[8:1]*>1[8:1],{8}7x/1x,{16}6,6,{8}4h[8:1],{16}5,3,
{8}4xh[8:1],{16}2,2,{8}8h[8:1],{16}1,7,{8}8xh[8:1],{16}6,6,{8}4h[8:1],{16}5,3,
{8}4xw8[8:1],,,,,7xh[16:1],,6xh[16:1],
,5xh[16:1],,4xh[16:1],,3x-8[8:1],,3s7[8:9],
,,,,,,,,,,,,A6/B6/E6f,
E3f/A2/B2,A8f/E8/E1,4x-8b[8:1],
{2}8xw4[8:1],{8}7<4[8:1],8v3[8:1],7,8,
5x-1[8:1],7-4[8:1],5,7-3[8:1],2x,7-4[8:1],5,7>2[8:1],
3<6[8:1],7,{4}3,{8}5xh[8:1],1,3/7,5,
2-4[8:1],1-5[8:1],{4}8-6[8:1],{8},E4,E5,E6,
7/3,6,5/4,3,2pp4[8:1],3,1<5[8:1],8,
3w7[8:1],2,{4}3,{8}5pp7[8:1],6,4>8[8:1],3,
6w2[8:1],5,{4}6,{32}1x/2x,8x/3x,7x/4x,5xh[32:5]/6xh[32:5],,,,,,,,,8x/7x,1x/6x,2x/5x,4xh[32:5]/3xh[32:5],
,,,,,,,,{8}8v5b[8:1],1v4b[8:1],8,1,,7/2,
{32}3x,4x,5x,6x,7x,8x,1x,2x,{4}3x/7x,{8}B6f/B5/D6/A6/2b>5[8:1],1v6[8:1],2,1,
4x-8[8:1],2-5[8:1],4,2-6[8:1],7x,2-5[8:1],4,2<7[8:1],
6>3[8:1],2,{4}6,{8}4xh[8:1],8,6/2,4,
7-2b[8:1],8-4b[8:1],{4}1-6b[8:1],B8f,{8}5h[8:1],8z4[4:1],
,6xh,7xh,8xh,,2>5[8:1],6,2,
7-3[8:1],7,4h,4h,2<8[8:1],8<6[8:1],6>4[8:1],4>2[8:1],
,Ch[8:1],,,1-5[8:1],3,1,8-4b[8:1],
6,8,1,1qq5[8:3]*pp5b[8:3],,1,,,,3/7,
{4}3/7,{8}6x/4x,7,3/5,2,
4/6,8,5/3,1,6/4,1/2,4/7,{16}3,5,
1q5[8:1]*v4[8:1],8,{8}1,,,3x/5x,2,6/4,7,
5/3,1,4/6,8,3/5,8/7,5/2,{16}6,4,
{8}8,{16}3,3,{4}1s5[8:1]*v4[8:1],{2}1b,
E
