&title=瞬間、シンフォニー。
&artist=40mP/かぐや(cv.夏吉ゆうこ)
&first=-0.119
&des=Ayuri
&des_5=Ayuri
&lv_5=13+
&inote_5=(200){4},,{2}8v7<4[4:5],
{4},3h[4:3],,,,,{2}1v2>5[4:5],
{4},,E6,E7,
E8,E1,{2}4qq8-2[4:5],
{4},7h[4:3],,,,,{2}8qq4-6[4:5],
{4},,,,,,3h[2:1],
{8}5,5,
{2}7V15[4:1],{4}4,5,
3,6,6h[2:1],{8}4,4,
{2}2V84[4:1],{4}5,4,
6,3,8/2,{8}1,3,
{2}8-3[8:1],{4}1/7,{8}8,6,
{2}1-6[8:1],{16}B4/5x<4[4:5],C,{8}B8,,,,,,,,,,,,,{4}5h[2:1],
{2}4V68[2:1],
{4},5V71[2:1],{8},,3,3-7[4:1],
,,,6h[8:9],,,E6,E7,
{2}E8,{4}3x,5/4,
6,4h[2:1],{2}5V31[2:1],
{4},4V28[2:1],,6-2[4:1],
,3h[1:1],4,{8}E4,E3,
{4}E2,8<4[2:1],,,{2}1h[2:1],
8V24[2:1],
{4},1V35[2:1],{8},,7,7-3[4:1],
,,,2h[8:9],,,E4,E3,
{2}E2,{4}7x,1/8,
2,8h[2:1],{2}1V75[2:1],
{4},8V64[2:1],,2-6[4:1],
,7h[1:1],8,{8}E8,E7,
{4}E6,4>8[2:1],,,,4-1[8:1]/5-8[8:1],
4/5,4>1[8:1]/5<8[8:1],
5/4,{8}7/2,2/7-4-7[4:1],,2-5-2[4:1],,,,,{4}1-5[8:1]/8-4[8:1],
8/1,1>4[8:1]/8<5[8:1],
8/1,{8}6/3,3/6V47[4:1],,3V52[4:1],,,,,8,
7,{4}6>5v8[8:1],{8}1,2,
{2}3<4v1[8:1],{4}8-4[8:1]/7-5[8:1],7/8,
1-5[8:1]/2-4[8:1],2/1,2/7-4[8:1],{8}7/5,3,
{4}1-5[8:1],1,7/2-5[8:1],{8}2/4,6,
{4}8-4[8:1],8,2q3[8:3],2,
5x<8[8:1],{8}5,4-7[8:1],,4/1-5[8:1],,1/4w8[8:1],
,4b,,,{4}7p6[8:3],{8}7,4x>1[8:1],
,4,{4}5-2[8:1],{8}5,8-4[8:1],,8,
{4}5w1[8:1],5,{16}7,6,{8}5pp3[2:1],,,,,,2>5-1[8:3],
,,,,,,{4}7<4-8[8:3],
{8},,,,1-3[8:1],
7,{4}1,8,1,
{8}8-6[8:1],2,{4}8,4h[8:1]/5h[8:1],3h[8:1]/6h[8:1],
{8}4,4,5,5,3,3,6,6,
3,3,7,7,1/2,{16}3,4,{8}3,8/7,
{16}6,5,{8}6,{16}4b/5b,3/6,2/7,1/8,{2}E1f,
{4}2>5[8:1]/6-2[8:1],{16}2b/6b-8[8:1],Cf,,,{4}6/1-5[8:1],{8}1,7-3[8:1],
,7/4<2[8:3],,4/6h[8:3],,,,,{4}7<4[8:1]/3-7[8:1],
7/3-1[8:1],3/8-4[8:1],{8}8,2-6[8:1],
,2/5>7[8:3],,5/3h[8:3],{16},,,,,,,,5,
6,7,8,4,3,2,1,{4}5w1[8:1],5b,
{8}4w8[8:1],5,{4}4b,6-2[8:1],1>5b[4:1],
{2}5<1b[4:1],{4}4,2-7[8:1]/6v3[8:1],
{8}2/6,,,4-6[8:1]*-7[8:1],,4-2[8:1]*-1[8:1],,4,
{16},,8,1,2,3,4,5,{4}8-4[8:1]/6-8[8:1],8/6,
1-5[8:1]/3-1[8:1],1/3,{8}6<1[8:1],5,4,3,
2>5[8:1],1,8,7,{4}6-2[8:1]/2-4[8:1],2/6V84b[4:1],
6,{8}5,5h[8:5],,2,1,8,
7,6,{4}5/4p5[4:1],{2}5<4[8:3],
{8}6x,6,5,6-2[8:1],,6,{4}3-8[8:1]*-7[8:1],
3,A8/D8f/A7,1>4[8:1],1<6[8:1],
1w5[8:1],1,7<4[8:1]/8>3[8:1],A7/D8f/A8,
2>5[8:1]/1<6[8:1],A1/D2f/A2,{32}8bx<1[8:3]/1bx>8[8:3],D8/D2,D7/D3,D6/D4,{8}D5,,,,,2/7,
3/6,{4}5/4>1[8:1],{8}6,6,
{4}4/5<8[8:1],{8}3,3,{4}1-6[8:1],{8}1/7,5-1[8:1],
,5/1,{4}2x-5[8:1],{32}2x/A1,A8,A7,A6,,,,,{4}7x-4[8:1],
{32}7x/A8,A1,A2,A3,{4},{16},,{6}5/6,4/5,3/4,
1/2,8/1,7/8,6h[2:1],,,{2}3h[2:1],
8h[2:1],
{24}7,6,5,4,3,2,{4}1b/8b-4[8:1],3-8[16:1],5w1b[8:1],
{32},,,,,,,,,,,,,,,,3h[4:1]/D2f,B1,B7,D7,,,,,,,,,,,,,D3f,
B3,B5,D6,{96},,,,D7f,,,B7,,,{48}B1,{96},D2,,,,,,,D4f,,,B4,,,{48}B6,{96},D7,,,,,,,{32}D8f,B8,B2,D3,,,,,,,,,,,,,A3/A5,
B3/B5,Cf,B7/B1,{8}A7/A1,{32},,,,,,,,A8/A2,B8/B2,Cf,B4/B6,{8}A4/A6,,,{2}1b/8b>5p8b[2:1],
{32}A6,B6,C,B2,{8}A2,{24},,{6}7b,
{3}7b-3[8:1],{6}2b,2b-6[8:1],{4},{16},{64},{192},{32}D7f,
B6,B4,D4,{96},,,,D3f,,,B2,,,{48}B8,{96},D8,,,,,,,D6f,,,B5,,,{48}B3,{96},D3,,,,,,,{32}D2f,B1,B7,D7,,,,,,,,,,,,,A6/A4,
B6/B4,Cf,B2/B8,{8}A2/A8,{32},,,,,,,,A1/A7,B1/B7,Cf,B5/B3,{8}A5/A3,{24},,,,,,{6}8/1,
2/7,3/6,5/4-1[8:1],,,{2}5-8b[8:1],
Cf,
E
