&title=死生観にさよなら
&artist=あばらや
&first=0.395
&des=×⚪
&lv_5=14
&inote_5=(160){8},,,,,,{32}8x>4>8[2:6]/7h[2:1],B8,C,B4,,,,,,,,,,,,,,,,,,,,,{4},,,,,Ch[4:8],,,,,,,,{64}1x-3-8-4-7-5-7-4-8-3-1b[4:15],E2,A2/B2,E3,B3,E4/A3,D4,,,,,,{4},,,,,,{16},,,,,,,{1},,{8},,,,,{16},,,,2,,2,,6,,6,,E4,E5,E6,,8^5[8:1],,,,
{8}8b/4,,2,2h[2:1],,B7,B6,B5,1/4x<7[8:1],,A2,1v4[8:1]*-5[8:1],,1,,
{8}6,6^1[8:1]/2,,3,3h[2:1],,1,8,7h[8:1],
{24}A2,A3,A4,A5,A6,A7,A8,A1,A2,3xh[4:1],,,{16},,E8f/B8/B7,,,,
{8}4^1[8:1],4,,6,6h[2:1],,B3,B2,B1,4/8x>3[8:1],,A4,5v8[8:1]*-1[8:1],,5,,
{8}6,2^5[8:1],,7,7h[2:1],,5,4,3,{32}E3,B2,B1,E1,A8,,A7,E8,E1,A1,,,2bx-5b[8:1],,,,,,,,A2f/A7f,B7,C,B3,A3,,,,,,,,
{8}6h[8:1],{16}4,5,3,,7h[8:1],,{8}1h[8:1],{16}6,3,5h[8:1],,4,,
{8}4<7[4:1],4,8V64[4:1],8,{8}A4,A3,A2,A1,
{8}7h[8:1],{16}1,8,2,,6h[8:1],,{8}1h[8:1],{16}6,3,5h[8:1],,4h[4:3],,,,A5,,A3,,B5/E6,,E3/B3,,Cfh[8:1],,,,,,
{8}3h[8:1],{16}5,4,7,,4h[8:1],,{8}8h[8:1],{16}3,6,2h[8:1],,5,,
{8}7V53[4:1],7,3V57[4:1],3,{8}A8,A1,A2,A3,
{16}8h[16:3],,,1,7<4[8:1],,8,,2,,,,A3,,4,,5,,6,,7,,8h[4:1]/A1/B1,,A2/B2,,A3/B3,,A4/B4f,,,,
{16}7h[8:1],,,,4h[8:1],,6h[8:1],A3,A2,A1,5-1[8:1],,2,,5b,,
{16}2h[8:1],,,,6h[8:1],,1h[8:1],A7,A6,A5,1-5[8:1],,6,,1b,,
{16}6h[8:1],,,,3h[8:1],,8h[8:1],A2,A3,A4,1^6[8:1],,4,,1b,,
{16}4h[8:1],,,,6h[8:1],,3,2,1w5[8:1],,,,1b,,,,
{16}8h[8:1],,,,4h[8:1],,6h[8:1],4,3,2,6-2[8:1],,2,,6b,,
{16}3h[8:1],,,,7h[8:1],,2h[8:1],8,7,6,2-6[8:1],,6,,2b,,
{16}7h[8:1],,,,4h[8:1],,8h[8:1],4,3,2,8^5[8:1],,2,,8b,,
{16}4h[8:1],,,,6h[8:1],,2,3,4w8[8:1],,6,,4bx,,,,
{16}4,5h[8:1],,3h[8:1],,,6h[8:1],3,2,1,5^8[8:1],,2,,5b,,
{16}2,1h[8:1],,3h[8:1],,,8h[8:1],2,3,4,7-4[8:1],,3,,7b,,
{16}1,1h[8:1],,5h[8:1],,,2h[8:1],5,6,7,1^4[8:1],,5,,1b,,
{16}5,5h[8:1],,3h[8:1],,,6,7,8w4[8:1],,7/1,,8b,,,,
{16}7-4[8:1],,4-8[8:1],,7,,1,,1b-5[8:1],2,3h[8:1],,1,,4,,
{16}6^1[8:1],,1-5[8:1],,6,,4,,4b-8[8:1],3,2h[8:1],,4,,1,,
{16}3h[16:1]/7h[16:1],,2h[16:1]/6h[16:1],,3h[16:1]/7h[16:1],,6,3,7,2,8h[4:1],,B2/B1/E2,,B4/E4/A4,,
{16}7,3,6,4,5,1,8,2,7-2v5b[16:6],3,8,2,{32}7b,,,,,,,,,,,,,,,,
{16}3b,5,3,5,2,6,2,6,4,7,4,7,2,1,2,1,3b,4,3,4,1b,4,3,4,8b,4,3,4,2b,4,3,4,3,2,1,8,4,5,6,7,8/1,2,3,4,8,7,6,5,2,5,3,7,4,8,2,7,8b-4[8:1]/1b-5[8:1],,2/7,,1b/8b,,,,
3b,6,3,6,2,5,2,5,1,6,1,6,8,7,8,7,5b,6,5,6,4b,6,5,6,3b,5,4,5,2b,5,4,5,2,3,4,5,1,8,7,6,5/4,3,2,1,5,6,7,8,1h[8:1]/4h[8:1],,,8h[8:1]/4h[8:1],,,7h[8:1]/4h[8:1],,,6h[8:1]/4h[8:1],,,
5h[8:1]/4h[8:1],,,3h[8:1]/6h[8:1],
{8},,5^6^7^8^1^2[2:1],,2,,3,,4>6[2:1],,7,6,5h[2:1],,,,,,
1^2^3^4^5^6[2:1],,6,,7,,8-6-4-2[2:1],,2xing,3,4h[2:1],,A1,A8,A7,A6,
5xpp5[2:1],,2,,3,,4qq4[2:1],,6,7,8h[2:1],,,,,,
1^6[2:1],,2,,3,,4-1[2:1],,7,6,5h[2:1],,,,
,,1^2^3^4^5^6b[2:1],,6,,7,,8<2b[2:1],,3,2,1h[2:1],,,,,,
5^6^7^8^1^2b[2:1],,2,,3,,4-2-8-6b[8:3],4,5,6,7h[2:1],,A5,A4,A3,A2,
6pp6b[2:1],,3,,4,,5qq5b[2:1],,7,8,1h[2:1],,,,,,
3^6b[2:1],,2,,1,,8b-4b[2:1],,4,3,2h[2:1],,,,,,
4h[4:3]/6h[4:15],,,,,,,,3h[4:3],,,,,,,,2h[4:3],,,,,,,,3h[4:3],,,,,,,,
{16}4b,7,2,6,4,5,2,4,3,7,1^3[8:1],,8,,1,,
{16}8,4,7,5,6,4,5,3,6,2,7-3[8:1],,2/6,,7,,
{16}2,4,1,5,8,6,5,7,4,8,3-5[8:1],,7,,3,,
{16}6,4,7,2,5,3,8,1,7h[8:1],,1h[4:1],,8h[8:1],,,,
{16}7b-5[8:1],,5-7[8:1],,7,,4x,,A2,A3,A4,,8h[8:1],,4h[8:1],,
{16}7b-4[8:1],,4-7[8:1],,7,,3x,,A1,A2,A3,,7h[8:1],,3h[8:1],,
{16}7b-3[8:1],,3-7[8:1],,7,,2x,,A8,A1,A2,,6h[8:1],,2h[8:1],,
{16}6b-2[8:1],,2-6[8:1],,6,,4x,,A4,A3,A2,,5h[8:1],,1h[8:1],,
{16}5b-1[8:1],,1-5[8:1],,5,,4,,4b-8[8:1],3,2h[8:1],,4,,2,,
{16}7b^4[8:1],,4^7[8:1],,7,,1,,1b-5[8:1],2,3h[8:1],,1,,3,,
{16}2b,4,3,5,4,6,5,7,8b,6,1,5,2,4,3,{32},,8b,7,6,5,{32}4,,8b,7,6,5,{32},,8b,7,6,,{32},,8b,7,,,{32},,B1/B2/E3/B3/B4f/E5/E1/B8/B7/E7/B6/B5f,,,,,,,,
{16}8b/4b,,3,1,2,,2h[2:1],,Cf,,7,,6,,5,,5b/1x>4[8:1],6,7,8,1,,6-1[8:1]*-8b[8:1],,,,A6f,,,,
{16}3,,3^8[8:1]/8b,7,6,5,3,,5h[2:1],,,,A8/B8/E8,,B2/A2/E3,,1xh[8:1],,
{24}7b,6,5,A2,A3,A4,1,8,7,6xbh[4:1],,,{16},,E3/B1/B2f/B3f/B4,,,,3/5,,
{16}1b/4b,,1,4,3,,5h[2:1],,Cf,,3,,2,,1,,1b/5x<8[8:1],2,3,4,5,,3^8b[8:1]*-1[12:1],,,,A3f,,,,
{16}7,,7^4[8:1]/4b,3,2,1,7,,1h[4:1],,{16}6x,7x,8x,2x,3x,4x,5xh[4:1],,
{24}A8,A7,A6,A5,A4,A3,A2,A1,A8,8xh[4:1],,,{16},,B3/B4f/B5f/B6/E5,,,,,,
{16}1b^6[8:1]/3,,2,,1-5[8:1],,3,3,1,,2,3,4,,7h[16:1],1,
{16}2b^5[8:1],,5,,2-6[8:1],,8,8,2,,1,8,7,,2h[16:1],5,
{16}1b-6[8:1],,7,,1^4[8:1],,4,4,1,,8,7,6,,1h[16:1],6,
{16}2b^5[8:1],,4,,2^7[8:1],,8,8,2,,5,,5hb[8:1],,,,
{16}2bxh[16:1],4h[16:1],3h[16:1],4h[16:1],3h[16:1],4h[16:1],3h[16:1],4h[16:1],1bxh[16:1],5h[16:1],4h[16:1],5h[16:1],4h[16:1],5h[16:1],4h[16:1],5h[16:1],3xbh[16:1],6h[16:1],5h[16:1],6h[16:1],5h[16:1],6h[16:1],5h[16:1],6h[16:1],2xbh[16:1],6h[16:1],5h[16:1],6h[16:1],5h[16:1],6h[16:1],5h[16:1],6h[16:1],
{32}2bx,3x,4x,5x,1x,8x,7x,6x,
{24}3bx,4x,5x,8x,7x,6x,{20}1bx,2x,3x,4x,5x,{16}7bx,6x,3x,4x,{12}7b,3,5,{8}1b,6,{24}2b,,,,7,,,,4h[24:16],,,,{4}8bh[4:6],{16},,,,,,,Chf[16:13],
&inote_6=(160)
