&title=Avys
&artist=Se-U-Ra
&first=-0.64
&des=La pienture
&lv_5=14
&inote_5=(182){4},{1},,{4},,,{8}3,
3h[8:5]/4-6v7[8:11],,,,,,E3/B3,
,,,,,,,,7,
7h[8:5]/8-2v4[8:11],,,,,,E7/B7,
,,,,,,,,5,
5h[8:5]/4-2-6[8:11],,,,,,B5/E5,
,,,,,,,,8,
8h[8:3],,1,{4}1s5[8:1],1/8,
{8}7b/2b,6h[8:1],5h[8:1],4,{4}3-8[8:1]/7-4[8:1],7/3<1[4:3],
1b,E2,E3,E4,
5>8[4:3],E8,E7,E6,
4v6-8[4:3],1,2,3,
4h[8:1],5h[8:1]/1h[8:1],{8}1x-6[8:1]/5x-2[8:1],8x/4,{4}1/5,
{16}1x,7x,1,7,2,6,2,6,3,5,3,5,{4}B4f,
{16}8x,2x,8,2,7,3,7,3,6,4,6,4,{4}B5f,
{16}4x,5x,3,6,2,7,1,8,{32}2,E2,E1,E8,E7,E6,E5,E4,E3,E2,E1,E8,E7,E6,E5,E4,
{2}Ch[2:1],{4}1-5b[8:1],1,
{8}6h[2:1],5,{16},4,,,3,,,2,,,{8}1h[8:5],
,8,{16},7,,,6,,,5,,,{8}4h[8:5],
,3,{16},2,,,1,,,8/5,,,{8}7/6,
{16}A8,E8,E7,A6,A1,B1,B5,A5,A2,E3,E4,A4,{4}Cf,
5x,5,{16}5,,,4,{8}5h[8:1],4,
{4}6,6,{16}6,,,4,{8}6h[8:1],4,
{4}7,7,{16}7,,,4,{8}7h[8:1],4,
{4}8<5b[4:1],5>2[4:1],1-5[8:1],1,
8,7b/1b,{16}6,,,2,{8}6h[8:1],5,
{16}3,,,6,{8}3h[8:1],4,{4}5-7[8:1],2/5,
1,2/7,{16}3,,,7,{8}3h[8:1],4,
{16}6,,,3,{8}6h[8:1],5,{4}4-2[8:1],4/5,
6,2-5[8:1],1>7[4:1],1,
3,1/7-4[8:1],8<2[4:1],8,
1h[8:1],1h[8:1],2h[8:1]/8h[8:1],8h[8:1]/2h[8:1],
{16}3,7,3,7,{4}4-2[8:1]/6x-2[8:1],6/4-8[8:1],4,
1,{16}1-5[8:1],8,7,6,{4}1/5-2[8:1],6,
{16}7,1,7,1,{8}6,5/2,4-7[8:1],3,{4}4/2,
8,{16}8-4[8:1],1,2,3,{4}8/4-7[8:1],3,
{16}2,8,2,8,3h[16:1],4h[16:1],3h[16:1],4h[16:1],2,5,3,4,1,2,3,4,
{4}5/6,{16}7-3[8:1],8,1,2,{4}3V57[8:1],1,
{16}2,8,2,8,4,6,5,7,5,6,4,6,{8}5h[4:1],{16}6,7,
{4}8bV24-6<8[4:3],,,6xz2b[8:5],
,,1-5[8:1],1/8,
{16},,,,1-5[8:1],8,7,6,{4}1/5-2[8:1],6,
{16}7,1,7,1,{8}6,5/2,4-7[8:1],3,{4}4/2,
8,{16}8-4[8:1],1,2,3,{4}8/4-7[8:1],3,
{16}2,8,2,8,3h[16:1],4h[16:1],3h[16:1],4h[16:1],2,5,3,4,2,1,8,7,
{4}6/5,{16}6-2[8:1],5,4,3,{4}2V86[8:1],4,
{16}3,5,3,5,1,7,8,6,8,7,1,6,{8}2,3/5,
{16}4h[16:3],,,6,{8}5,7/4,{16}3/8h[16:3],,,2,{8}4,5/1,
{16}2b,6,2,6,3,7,3,7,4-8[8:1],8,4,8,{64}4b,Cf,,,,,,,,,,,,,,,{16}1bxh[8:1]/2xh[8:1],
,,3bh[8:1]/5h[8:1],,,{8}4bh[8:1]/6h[8:1],{16},5bh[8:1]/7h[8:1],,,{4}E1f/B8/E8,
{16}4h[8:1]/3bxh[8:1],,,2bh[8:1]/8h[8:1],,,{8}1bh[8:1]/7h[8:1],{16},8bh[8:1]/6h[8:1],,,{4}B1/E2/E1f,
{16}4/5bxh[8:1],,,3/5bxh[8:1],,,{8}2/5bx,{16}6/1bxh[8:1],,,7/1bxh[8:1],,,{8}8/1bx,
{16}2,4,3,4,2,5,4,6,{32}7bx/3bx,8,1,2,3,4,5,6,7<7<7[4:15],8,1,2,3,4,5,6,
{1}7bx/3bxV57[4:7],
,,,{8}6,
5,4,6,5,4,6,5,
4,7,6,5,{2}8-4[8:1],
{8}3,4,5,3,4,5,3,4,
5,2,3,4,{2}1-5[8:1],
{8}6,5,4,6,5,4V61-7-5[8:7],,3,
,,2,2,,,3,3,
3,4,5,3,4,5v3>1[2:1],,5,
{4}6h[8:1],7h[8:1],8xw4[8:1],8,
{16}3x,1,2,8,1,7,8,6,1,5,2,4,{4}B3f/E3/E4,
{16}6,8,7,1,8,2,1,3,8,4,7,5,{4}B6f/E7/E6,
{16}4,5,4,5,3,6,3,6,{32}E3,E2,E1,E8,E7,E6,E5,E4,E4,E3,E2,E1,E8,E7,E6,E5,
{2}Ch[4:1],{4}1b,{16}3,7,4,6,
{4}5>7[4:1],{24}8bx,7,6,5pp2[4:1],,,{4}A7f,8bx,
1>7[4:1],{24}5bx,6,7,8qq4[4:1],,,{4}A7f,1bx,
{8}1-5[8:1],5-1[8:1],1,6,7-3[8:1],3-7[8:1],7,1,
2,{16}2,1,,1,{8}3,4,{16}7,8,,8,{8}6,
{4}5<2[4:1],{24}1b,2,3,4qq7[4:1],,,{4}A2f,1bx,
8<2[4:1],{24}4b,3,2,1pp6[4:1],,,{4}A2f,8bx,
{8}8,{16}6,5,,5,{8}7,1,{16}3,4,,4,{8}2,
1-5[8:1],8-4[8:1],1>4[8:1],8<5b[8:1],1,8,{4}1b,
8>6[4:1],{24}5b,6,7,8qq3[4:1],,,{8}A6f,8x,{4}5bx,
4>6[4:1],{24}8b,7,6,5pp1[4:1],,,{8}A6f,5x,{4}4bx,
{8}4-8[8:1],8V24[8:1],4,7,6-2[8:1],2V86[8:1],6,4,
3,{16}3,4,,4,{8}2,1,{16}6,5,,5,{8}7,
{16}8b,8,2,1,{8}3b/7x,{16}4b,4,6,5,{8}7b/3x,{16}2b,2,8,1,
{8}7x/3b,{16}4b,4,6,5,{8}7,{32}8b-4[8:1]/1bx-5b[8:1],2x/7,3x/6,4x/5,,,,,{4}1b/8b,
{8}2b/7b,6,5,4,3/6b,5,4,3/7,
{16}8,2,8,2,4,3,4,3,5,4,5,4,6,5,6,5,
{4}7b-1[8:1],{8}7,5-7[8:1],,5,3v8[8:1],2,
{4}3x/1-5[8:1],1x-4[8:1]*-3[8:1],1x-7[8:1]*-6[8:1],1x,
{8}3h[4:1],{16}6x,5,{8}4,{16}4x,3,{8}2,1x,8x/2x>5[8:1],7,
{16}6x,7,8,1,6x,7,8,1,{4}6b-3[8:1]/2x-7[8:1],6bx/2bx,
{16}2bx,4,3,5,4,6,5,7,4,8,3,1,{4}B2f/E2/E3,
{16}7bx,5,6,4,5,3,4,2,5,1,6,8,{4}B7f/E8/E7,
{16}1bx,8,1,8,2,7,2,7,3x,5,4,6,{32}B3/B7,Cf,,,,,,,{16}1bxh[8:1]/2h[8:1],
,,7xh[8:1]/3bh[8:1],,,{8}6h[8:1]/5bh[8:1],{16},2bh[8:1]/5h[8:1],,,{4}E5/E3/B4/E4f/B3,
{16}8bxh[8:1]/7h[8:1],,,2h[8:1]/6bh[8:1],,,{8}3h[8:1]/4bh[8:1],{16},4h[8:1]/7bh[8:1],,,{4}E5/E7/B5/E6f/B6,
{16}1/2bxh[8:1],,,8/2bxh[8:1],,,{8}2b/6,{16}5/6bxh[8:1],,,3/6bxh[8:1],,,{8}6b/1,
{16}6,8,7,8,6,1,8,2,{32}3/7b,4,5,6,7,8,1,2,3,4,5,6,7,8,1,2,
3/7bh[4:1],,,,,,,,,E7,B6,B5,{16}3x,3,{8}2,1,2v7b[8:1]/6xv3b[8:1],7/3,
{1}Cf,
E
