&title=RED ZONE
&artist=清水達也; 前田尚紀
&first=0
&des=-
&lv_5=13+
&inote_5=(165)
{1},,,
{4},
{16}1-5[8:1],8,1,8,1b,,6,6b,,2,2b,,1/8,2/7,3b/6b,,
{16}5,6,7,4,3,2,5,6,7,4,3,2,8-4[8:1],,8,,8/2-6[8:1],,3,,2/8<5[8:1],,7,,8-4[8:1]/2,,,,,,,,
{16}8,7,6,1,2,3,8,7,6,1,2,3,8-4[8:1],,8,,8/2-6[8:1],,3,,2/8<5[8:1],,2,,2/8,,2,,
{12}1h,1h,1h,
{16}5,6,7,4,3,2,5,6,7,4,3,2,8,1,8,,1/8,2,3,4/8,7,6,5/1,2,3,4/8,7,6,5/1,2,3,4,
{16}8,7,6,1,2,3,8,7,6,1,2,3,5,4,5,,3,5h[8:1],,4,6h[8:1],,3,7,2,6,1,5,2,6,3,7,
{16}4b-8[8:1],,3,,4/5-1[8:1],,6,,5/4,,3,,8-4[8:1],7,6,,8,,5,,5-1[8:1],6,7-4[8:1],,5,,7,,1,2,3,,
{16}8,4,7,5,6,4,5,3,4,2,5,1,6,8,6,,1,2,3,4,8,7,6,5,1,2,3,4,8,7,6,5,
{16}1-5[8:1],,8,,7-3[8:1]/1,,8,,7/1-5[8:1],,8,,7/1,,8,,8<5[8:1],,4,,4<7[8:1],3,2,,8,,1,2,3,4/8,,
{16},8,4,7,5,6,4,5,3,4,2,5,1,6,8,6<1[8:1],,1>4[8:1],,,,,,,,2,1,8,7,6,5,4,3,
{16}7b-3[8:1],,6,,7/8-4[8:1],,1,,7/8,,6,6,,5,3,5,2-6[8:1],,3,,1-5[8:1]/2,,8,,1/2,,3,3,,4,6,4,
{16}7-3[8:1],,6,,7/8-4[8:1],,1,,7/8,,6,6,,,2,,8,3,7,4,6h[8:1],,1,5,2,4,3h[4:1],,,,,,
{16}8b<5[8:1],,3,,8>3[8:1],,4,,8-4[8:1],,5,5,8,,3,,1>4[8:1],,6,,1<6[8:1],,5,,1-5[8:1],,4,4,1,,
{16}6,7,8<5[8:1],,3,,8>3[8:1],,4,,8-4[8:1],,5,5,8,,3,,1,5,2,4,3h[8:1],,8,4,7,5,6h[4:1],,,,,,
{16}1-4[8:1],,4>1[8:1],,1<6[8:1],,5<8[8:1],5,,,,4-8[8:1],4,,,,1,,1,,6,2h[8:1],,7,3h[8:1],,8,4h[16:5],,,,,
{16}8-5[8:1],,5<8[8:1],,8>3[8:1],,4>1[8:1],4,,,,5-1[8:1],5,,,,8,7,6,2,3,4,7,6,5,1,2,3,4,5,,,
{16}1-6[8:1],,6<1[8:1],,1>4[8:1],,4>1[8:1],4,,,,5-1[8:1],5,,,,2,3,8,7,,3,4,,8/6,,,1/3,,,
{16}4>1[2:1]/5,,6,,6,,,7,,,8,,,8<5[2:1],,,1,,,,3,,,4,,,2/4,,,5/7,,,1/8,,2b/7b,,,,
{16}6/1-5[2:1],,,,,,,,,,,,,,6,,5,,4,,3,,6,,5,,4,,3,,,,
{16}3/6-2[2:1],,,,,,,,,,,,,,7,,8,,1,,2,,7,,8,,1,,2/6b-1[4:3:1],,,,
{16}2-5[2:1],,,,,,,,,,,,,,,,4/8,,7,,6,,5/1,,2,,3,,
{8}3/4b,3,3/2,3,3/4,3,3/7,3,4/6,7,3/5,2,
{16}6,5,7,3,4,2,6,5,
{16}8b-4[8:1],,7,,8/2-6[8:1],,3,,2,,8,8,,7,6,5,4/1-5[8:1],,2,,1/7-3[8:1],,6,,7,,1,1,,2,3,4,
{16}5/8-4[8:1],,7,,8/2-6[8:1],,3,,2,,1,1,,,8,,7,6,5/4,3,2,,1,2,3/4,5,6,,7,,8,,
{16}1b-6[8:1],,4,,1-4[8:1],,5,,1-5[8:1],,6,6,1,,7,,8-3[8:1],,5,,8-5[8:1],,4,,8-4[8:1],,3,3,8,,2,,
{16}1-6[8:1],,4,,1-4[8:1],,5,,1-5[8:1],,6,6,1,,7,,8,7,6,5,4/3,,1,2,3,4,5/6,,7,,8,,
{16}1-6[8:1],,6<1[8:1],,1>4[8:1],,4>1[8:1],4,,,,5-1[8:1],5,,,,2,,3,,4,6h[8:1],,4,7h[8:1],,4,8h[16:3],,,,,
{16}8-3[8:1],,3>8[8:1],,8<5[8:1],,5<8[8:1],5,,,,4-8[8:1],4,,,,7,6,5,1,2,3,8,7,6,2,3,4,5,6,,,
{16}1-6[8:1],,6<1[8:1],,1>4[8:1],,5,5,,,,6<1[16:3],6,,,,2,3,4,5,,2/6,,,4/8,,,3/6,,,
{16}4>1[2:1]/5,,,,6,,,7,,,8<5[2:1],,,8,,,1,,,,3,,,4,,,3/1,,,8/6,,,5<8[8:1],,8>3[8:1],,,,,,,,
{32}4,3,2,1,8,7,6,5,4,3,2,1,8,7,6,5,
{16}4b/1,,3,,8/5,,6,,2,4,3,7,5,6,2,4,3,8,4,6,3,5,1,7,4,6,2,8,3,6,4,5,
{16}4,3,2,1,5,6,7,8,3,2,1,8,6,7,8,1,3,4,5,6,3,4,5,6,2,1,8,7,2,1,8,7,
{16}4/6,,7,,4/6,,8,,3/5,,2,,3/5,,1,,5,4,5,2,5,4,5,1,5,4,5,8,5,4,5,7,
{16}8,1,2,3,5,6,7,8,5,4,3,2,1/8,7,6,5,2,6,3,7,4,8,3,7,2,6,1,5,8/4,1/5,2/6,3/7,
{32}4b/8b,,,,,,1/7b,6,5,,,,8/2b,3,4,,,,,,4/5,,,,3/6,,,,2/7,,,,
{32}8/1b,2,3,4,,,1/8b,7,6,5,,,8/1b,2,3,4,,,,,3/6,,,,2/7,,,,1/8,,,,1b/8b,2/7,3/6,4/5,
