&title=Dummy March
&artist=Oliver; 鏡音レン; Cassie Wei
&first=0.04
&des=OliLen
&des_5=OliLen
&lv_5=13+
&inote_5=(120){4},,,,,,,,4h[8:1]/5-2[8:1],
5/6h[8:1],5h[8:1]/4-7[8:1],4/3h[8:1],
4h[8:1]/5-8[8:1],5/6h[8:1],5h[8:1]/4-1[8:1],4/3h[8:1],
{8}4-7[8:1]/5-2[8:1],{16}3,6,{4}4/5,{8}1-4[8:1]/8-5[8:1],2/7,{4}1/8,
{16}4,4,7,7,1,1,5,5,{32}3x-7[8:1],2x,1x,8x,7x,6x,5x,4x,{4}3xh[8:1],
{16}2/5,3,4,3,5,4,5,4,6,5,6,4,5,4,5,3,
6,5,4,3,6,4,5,3,{32}5,6,{16}7<5[64:3],{32},,,,4,3,{16}2,,,7/4,
6,5,6,4,5,4,5,3,4,3,5,4,5,4,6,
3,4,5,6,3,5,4,6,{32}4,3,{16}2>4[64:3],{32},,,,5,6,{16}7,,,{8}6h[8:1],
5-1[12:1],{4}7h[8:1],{8}6h[8:1],1-3[12:1],{4}5h[8:1],
{8}6h[8:1],3-8[12:1],{4}7h[8:1],{8}6h[8:1],8p4[12:1],{4}5h[8:1],
{8}7,8-5[12:1],{4}3h[8:1],{8}4h[8:1],5-1[12:1],{4}3h[8:1],
{8}2h[8:1],1<6[12:1],{4}3h[8:1],{8}4h[8:1],6q2[12:1],{4}3h[8:1],
4>8[4:1],{16}8,7,6,5,4<8[4:1],,,1,{8}1,3,
{4}5,{16}4/8,3/7,2/6,1/5,4-7[8:1]/8-3[8:1],,,4/8,{4}4/8,
8h[4:1],{16}5,7/4,6/3,5/2,4/1h[4:1],,,5,{8}5,3/7,
{4}8>3[4:1]/5v3[4:1],,,E8/B7/B6/E6/B5/B4/B3/B2/B1/B8,
{8}3>8[8:1],{16}8>3[8:1],7,{8}6,7-5v4-2[4:1],{2}7h[4:1],
{8}8q8[4:1],{16}4,3,{8}2/8<4[6:1],1,2,{24},,,,,,2,3,4,
{8}6xh[4:1]/5xq2[8:1],{24},,,,,,7,6,5,{8}3xh[4:1]/4xp7[8:1],{24},,,,,,3,4,5,
{2}7x/6xp3b[32:21],{4}8-5[8:1],8,
{8}2-4[8:1],{16}8,8,{8}2-6[8:1],6-4-1[32:7],2,7v4[8:1],8,7h[16:1],
3-1[8:1],2,3-8q4>2[8:3],{16}7,7,{8}7-5[8:1],6,{4}7,
{8}1-3[32:3]*-4[32:3],1-7[32:3]*-6[32:3],1,1,5-1[8:1]*-1[8:1],4/6,5,{16}8,8,
{8}2-6[8:1],7-5[8:1],2-4[8:1],7-3[8:1],2<7[8:1],7,{4}2,
{16}5-1[8:1],3,7,1,{8}5>2[8:1],4,5<8[8:1],6,5,{16}4,4,
{8}3h[8:3],E7/B7/B8,C,E3/B1/B2,8-5[8:1]/4v1[8:1],7/3,{4}4/8,
{8}1-7[8:1],{16}6,6,{8}1-4[8:1],4v2[8:1],1,7<5[8:1],6,7,
1>3[8:1],5<7[8:1],1-4[8:1],5-8[64:7],1w5[8:1],5,{4}1,
{32}3x,4x,3x,4x,{16}3x,2x,{8}1x/6x,7x/4x,1x-3[12:1]/5x-7[12:1],3x/7x,{4}1x-4[8:1]/5xq8[4:7],
{1}5b/1bq4[2:3],
{4},,,{16},,{32}E2,B2,B3,B4,
{16}E5/8-6[12:1],,,1,2-4[12:1],,,8,7-5[12:1],,,2,3-1[12:1],,,6,
5<7[12:1],,,1,2>4[12:1],,,7,{8}8-4[12:1],{16}2-6[12:1],2,{8}8,2,
7<4[8:1],{16}8>3[8:1],1,{8}7-3[8:1],8-4[8:1],7,8,6,{16}4-8[8:1],3,
{8}2x,{16}1-5[8:1],2,{8}3x,{16}4,3,{8}2x,E2/B2/B1,{4}E2/B2/B1,
{8}2>5[8:1],{16}1<6[8:1],8,{8}2-6[8:1],1-5[8:1],2,1,3,{16}5-1[8:1],6,
{8}7x,{16}8-4[8:1],7,{8}6x,{16}5,6,{8}7x,E8/B7/B8,{4}E8/B7/B8,
{2}3h[64:31]/7h[64:31],{32}2/6,1/5,4/8,3/7,6,5,4,3,2,1,8,7,6,5,4,3,
{16}2bxh[64:27]/1bxh[64:27],{32},,,,,,,,,,,,3bx/8bx,4bx/7bx,{2}5bxh[8:3]/6bxh[2:1],
2x-5[4:1],7x<4[4:1],
3xp8b[8:5],{4}7-4[8:1],7,
{8}2h[8:1],{16}E6,B5,{8}3h[8:1],E8/B8,4h[8:1],E6/B5,3h[8:1],{16}E7,B6,
{8}2h[8:1],E8/B8,3h[8:1],E7/B6,4h[8:1],E7,{4}2/B7/B6,
{8}2h[8:1],{16}E6,B5,{8}3h[8:1],E8/B8,4h[8:1],E6/B5,3h[8:1],{16}E7,B6,
{8}2h[8:1],E8/B8,3h[8:1],E7/B7,4h[8:1],B6,{4}E6/B5/3>7[4:1],
{8}3b/7b>3[4:1],{16}6,6,{4}5h[8:1],{16}6,4,5,3,{8}4-7[8:1],{16}2,2,
{8}1>3[8:1],1,8-4[8:1],8,5-1[8:1],5,{4}6<2[4:1],
{16}2<6[4:1],2,3,3,{4}4h[8:1],{8}3,2,1V35[4:1],{16}7,6,
{8}5-2-8b[4:1],6,7,6,5s1[6:1],3/7,{4}1/5,
{32}2b-8[12:1],3,{16}4,6,6,{8}2>4[8:1],4v1b[8:1],2,7-5[12:1],6,7h[16:1],
2-4[12:1],5/4,2<7b[6:1],5,2,6h[24:5],{24}5,4,{6}3,
{32}1b-6[8:1],2,{16}3,7,7,{8}1V35[8:1],5v2[8:1],8h[16:1],7h[16:1],6v1[6:1],{16}8,7,
{8}6/3v8b[6:1],4,7p4[8:3],6,2-5[8:1],3,{4}2,
{32}6b>4[12:1],7,{16}8,2,2,{8}6v1[8:1],1<7-5b[4:1],3,4,5,{16}4,4,
{8}3-1[8:1],1-4[6:1],3,6-8b[8:1],8-5b[8:1],6,{32}3,2,{16}1,,,1q2[6:1],
5,2,6,{4}1,{8}6p5b[6:1],4/7,6,{16}4,3,
{8}2-4[16:1],{24}6,7,8,{8}2-8[16:1],{24}7,6,5,{8}2>8b[16:3],4h[32:11],{4}2,
{32}1/5,6/2,3/7,4pp8[8:11]/8pp4b[8:11],{1},{4},,,{16},,{8}7<4[8:1],
{16}8>3[8:1],1,{8}7-3[8:1],8-4[8:1],7,8,6,{16}4-8[8:1],3,
{8}2x,{16}1-5[8:1],2,{8}3x,{16}4,3,{8}2x,E2/B2/B1,{4}E8/B7/B8,
{8}2>5[8:1],{16}1<6[8:1],8,{8}2-6[8:1],1-5[8:1],2,1,3,{16}5-1[8:1],6,
{8}7x,{16}8-4[8:1],7,{8}6x,{16}5,6,{8}7x,E8/B7/B8,{4}E2/B1/B2,
{8}8<5[8:1],{16}1>4[8:1],2,{8}8-4[8:1],1-5[8:1],8,1,7,{16}4-1[8:1],3,
{8}2x,{16}8-5[8:1],7,{8}6x,{16}3,2,{8}1x,E1/B8/B1,{4}E5/B5/B4,
1h[4:1],2h[4:1],3h[4:1],4h[4:1],
7h[4:1],6h[4:1],4h[4:1],5h[4:1],
8h[4:1],7h[4:1],6h[4:1],5h[4:1],
2h[4:1],3h[4:1],4h[4:1],5h[4:1],
{8}1-5[8:1],{16}2,2,{8}3,4,3-7[8:1],2,1,{16}4,3,
{8}2,{16}6,7,{8}8,{16}2,3,{8}5-2[8:1]/4-7[8:1],3/6,{4}E5,
{8}8-4[8:1],{16}7,7,{8}6,5,6-2[8:1],7,8,{16}5,6,
{8}7,{16}3,2,{8}1,{16}7,6,{8}5/4w8[10:1],2/6,{32}A4,,,,,B1/B7,B2/B6,E6/E3,
{1}3xq6b[4:3]/5x-7-2[4:3],
E
