&title=不死身ごっこ
&artist=ピノキオピー
&first=-0.15
&lv_5=14
&des_5=genko
&inote_5=
(147){4},7h[8:15],{12}8,8,8,1,{24},1x,2x,3x,
{8}4x,5,6,{24}5x,4x,3x,{8}2x,1,8,{24}1x,2x,3x,
{8}4x,3,{4}2h[8:15],{12}1,1,1,8,{24},8x,7x,6x,
{8}5x,4,3,{24}4x,5x,6x,{8}7p3[8:1],8,{4}A7f,
{8}8-3[8:1],6,{4}4,{8}8-3[8:1],7,6,5,
4q8[8:1],3,{16}2,2h[8:1],{8},1,{16}1/5,8/4,{4}3h[8:1]/7h[8:1],
{8}1-6[8:1],3,{4}5,{8}1q6[8:1],2,3,4,
5q2[8:1],6,{16}7,7h[8:1],{8},8,{16}8-5[16:1]/4-1[16:1],1/5,{4}2/6,
{16}2h[16:1],1,2h[16:1],1,{4}2-7[8:1],{8}2,1,{16}2q6[8:1],3,{8}4,
8,8,{16}7p3[8:1],6,{8}5,{16}8q4[8:1],1,{8}2,{16}5,6,{8}7,
{4}1xh[8:1],{8}E8f,{16}3,5,{8}E2f,{16}6,4,{8}E8f,{16}2,8,
E4f,5,4,5,E3f,5,4,5,E2f,5,4,5,E1f,5,4,5,
E8f,5,4,5,{48}E7f/D7,A7,D8,A8,D1,A1,D2,A2,D3,A3,D4,A4,{8}5xh[8:13]/D5,2,2,{24}1,8,7,
{8}6,7,8,{24}1,2,3,{8}4,3,2,{24}1,8,7,
{8}6,7,{4}8h[4:3],{12}1,1,1,1,{24},2,3,4,
{8}5h[2:1],4,3,{24}2,1,8,{8}7h[4:1],8,{4}1s5[8:1],
,8h[4:3]/1>3-7-2-5-8-4[2:1],{8},,,,,7h[8:7]/4-8-5<6-3-7-4-1[8:5],
{1},{8}3z7[8:1],
7z3[8:1],5,5,8>6[4:1],8,
4h[4:1],{4},{8}3/7,8/4,1/5,{12}6/2,6/2,6/2,
7-4[8:1]/3-8[8:1],7/3,7/3,7p5[12:13]/3p1b[12:13],,,,,,,,,,,,,,,,,,{48}1x,
2,3x,4,1x,2,3x,4,5x,6,7x,8,
{4}1/4v1>3[8:1]*pp6[8:1],A4f,{16}5-1[8:1],3,6,4,{4}5,
8/5v8<6[8:1]*qq3[8:1],A5f,{16}4-8[8:1],6,3,5,{4}4,
{16}8p4[8:1],7,{8}8,8/3p1[16:3],3,8-5[8:1],8,3-7-3[4:1],3,
{4},{24}5,6,7,8,{12},{24}7/4,6/3,5/2,4/1,{12},{8}5/6,8/7,
{48}1/8h,2,3,4,5,6,7,8,1,2,3,4,{4}8/5v8<6[8:1]*qq3[8:1],A5f,{16}2,4,3,4,
{8}3,5/2,{4}1/4v1>3[8:1]*pp6[8:1],A4f,{16}1,8,7,6,
{8}5/4pp6[8:1],3,{4}2/4-8[8:1],4/5qq3[8:1],7/5-1[8:1],
4/5,{8}6/3,{16}4,5,{8}6/3,{16}4,5,3,6,4,5,
{48}3x,4x,5x,6x,7x,8x,1x,2x,3x,4x,{24},{8}1-4[8:1],3x,3>6[16:3],5x,5-8[8:1],4x,
{4}1x-3[8:1],{32}1/8-6[8:1],B8,C,B4,{8}A4,{32}1/8>4[16:3],B1,C,B5,{8}A5,4-1[8:1],6,
8,2,8-5[8:1],6x,6<3[16:3],4x,4-1[8:1],5x,
{4}8x-6[8:1],{32}8/1-3[8:1],B1,C,B5,{8}A5,{32}A8/1<5[16:3],B8,C,B4,{8}A4,5-8[8:1],4,
3,2,{4}1w5[8:1],A1f,8bw4b[8:1],
Cf/B6/B2,{16}1,5,2,6,3-8[8:1],7,4,8,{4},{8}2/7pp2[4:3],
8/1,{48}7/2,3,4,5,{12},,,,,{4}2<7[4:1],
,A4/D4/A3,{8}3-6[16:1],{16}1,8,{8}3,7,
{16}3-6[16:1],2,1,8,{8}3,1,3-6[16:1],4/5,{4}3/4-1[8:1],
8-5[16:1],D1f/A8/A1,{16}3,4,5,3,4,5,3,4,
{8}5h[8:1],6h[16:7],7,{16}8,1,2,3,4,5,{4}7z3[8:1]/6z2[8:1],
,{16}1,5h[16:1],,1,{8}5h[16:1],{16}8,5,1,6,2-6[8:1],7,
{4}3,{16}5,4,3,2,4,3,2,1,8-4[8:1],7,{8}6,
{4}8,{8}5/7-3[8:1],6/8,{16}7/1,1h[8:1],{8},{16}4,2,4,2,
{4}4-1[8:1],{8}1-4[8:1],3,4-1[8:1],2,1-5[8:1],3,
{4}5w1[4:5]*w1[4:5],Ch[4:5],,,,,,{32}1,
2,3,4,5,6,7,8,
{4}1b,{8}3b,{16}3,4,3b,4,,4,{8}3b,{16}3,2,
{12}3b,{48}1,8,7,6,5,4,{24},{8}3b,{16}3,1,{8}3b,{16}3,5,3b,4,3,4,
{8}3b,5/4,6b,{16}6,5,6b,5,,5,{8}6b,{16}6,7,
{12}6b,{48}8,1,2,3,4,5,{24},{8}6b,{16}6,8,{8}6b,{16}6,4,6b,5,6,5,
7bxh[24:1],7bxh[24:1],7bxh[24:1],7bxh[24:1],{4}7bq1b[8:1],8bxw4b[8:1],{16}8b,Cf/B2/B6,{8},{16}2bxh[24:1],
2bxh[24:1],2bxh[24:1],2bxh[24:1],{4}2bp8b[8:1],1bx-5b[8:1],5bxw1b[8:1],
{16}5b,Cf/B3/B7,{8},{16}6,7/5,,3,{8}2/4,{16}6,5/7,,2,{8}1/3,
2/4,3/5,4h[8:1],1x,6h[8:1],1x,4h[4:1],1b,
{4}1b-5[16:1],8h[4:15],,,,,,,,,,,,,,{32}A2,
B2,C,B5,{8}A5,
{4}3>6[4:1],E5f/B5/B4,5q4[16:3],B8/B1/E1,
6<3[4:1],E5f/B5/B4,4p5[16:3],B8/E1/B1,
8<5[8:1],2/8>3[8:1],6/8<5[8:1],2/8>3[8:1],
6/8-4[8:1],{8}8,7-5v4-2[4:1],{2},{16}4v1>3[8:1]*pp6[8:1],
4,4,4,4,Cf,{8},{16}5p1[8:1],3,6,4,{4}5b,
8/5v8<6[8:1]*qq3[8:1],A5f,{16}4q8[8:1],6,3,5,{4}4b,
{16}8p4[8:1],7,{8}8,8/3p1[16:3],3,8-5-8[4:1],8,3-7-3[4:1],3,
{4},{24}6,7,8,1,{12},{24}8/5,7/4,6/3,5/2,{12},{8}3/4,8/7,
{48}1/8h,2,3,4,5,6,7,8,1,2,3,4,{4}8/5v8<6[8:1]*qq3b[8:1],A5f,{16}2,4,3,4,
{8}3,5/2,{4}1/4v1>3[8:1]*pp6b[8:1],A4f,{16}1,8,7,6,
{8}5/4pp6[8:1],3,{4}2/4-8[8:1],4/5qq3[8:1],7/5-1[8:1],
4/5,{8}6/3,{16}4,5,{8}6/3,{16}4,5,3,6,4,5,
{48}3x,4x,5x,6x,7x,8x,1x,2x,3x,4x,{24},{8}1-4[8:1],{16}3x,3,{8}3>6[16:3],5x,5-8[8:1],4x,
{4}1x-3[8:1],{32}1b/8-6[8:1],B8,C,B4,{8}A4,{32}1b/8>4[16:3],B1,C,B5,{8}A5,4-1[8:1],6,
8,2,8-5[8:1],{16}6x,6,{8}6<3[16:3],4x,4-1[8:1],5x,
{4}8x-6[8:1],{32}8b/1-3[8:1],B1,C,B5,{8}A5,{32}A8/1b<4[16:3],B8,C,B4,{8}A4,4-7[8:1],3,
2,1,{4}8w4[8:1],A8f,1bw5b[8:1],
Cf/B3/B7,{16}8,4,7,3,6-1[8:1],2,5,1,{4},{8}7/2qq7[4:3],
1/8,{48}2/7,6,5,4,{6},{8}5,6,{4}7>2[8:1],
,{24}4,5,6,7,{12},{24}6/3,5/2,4/1,3/8,{12},{8}6/5,1/2,
{16}8bx-4[8:1]/3bx-1[8:1],8bx/3bx,{8}8bx/3bx,{4}3/8,{8}4/3,7/8,{4}1-5[8:1]/6-8[8:1],
1b/6b,{8}8x,{32}2x,3x,4x,5x,{8}1x,{32}7x,6x,5x,4x,{8}8x,1<6[8:1],
6<4[2:1]*<4[2:1],1,{4}5h[4:1],,5w1[8:1]*-1[8:1],
5b/Cf/B7/B3,{8}2/4,3,5/4h[4:1],{48}3<7[8:1],2,1,8,7,6,{8}5,{32}7,8,1,2,
{8}3x,6,4x/5h[4:1],{48}6>2[8:1],7,8,1,2,3,{8}4x,{32}2>6b[8:1],1,8,7,{8}6x,{32}6x/2x,7,8,1,
{8}2x,{32}3,2,1,8,{8}7/5,6,4/5h[4:1],{48}6>2[8:1],7,8,1,2,3,{8}4,{32}2,1,8,7,
{8}6x,3,5x/4h[4:1],{48}3<7[8:1],2,1,8,7,6,{8}5x,{32}7<3b[8:1],8,1,2,{8}3x,{32}3x/7x,2,1,8,
{8}7x,{32}6,7,8,1,{8}2/4,3,5/4h[4:1],{48}3<4<5<6<7[8:1],2,1,8,7,6,{8}5,{32}7,8,1,2,
{8}3x,6,4x/5h[4:1],{48}6>5>4>3>2[8:1],7,8,1,2,3,{8}4x,{32}2>3<4<5<6b[8:1],1,8,7,{8}6x,{32}6x/2x,7,8,1,
{8}2x,{32}1,8,7,6,{8}4b/5bh[8:1],3,{16}1,1,1>5[8:1],1,{8}1,{32}5/1,6,7,8,
{4}1bh[16:3],8h[16:3],7h[16:3],6h[16:3],
{1}6>3[4:1]/5q4[8:3],
E
