&title=SIINCA
&artist=有明/Ariake
&first=0
&des=请输入谱师
&des_7=请输入谱师
&lv_5=1
&lv_7=1
&inote_5=(125){4},
E
&inote_7=(190){4},,,,{1}1>4[1:1],
1>4[1:1],
{2}1,1h[2:1],
,1/1,
{1}1>4[2:7],1>4>1>4>2>3>1>2<1>3>2>4>2>3>1>2<1>3>2>4>3<4>2>3>1>4>1>4>2>3>1>2<1>3>2>4>2>3>1>2<1>3>2>4>3<4>2>3>1>4>1>4>2>3>1>2<1>3>2>4>2>3>1>2<1>3>2>4>3<4>2>3>1>4[2:5],
{2}1,1,
{1}1h[4:3],
{4}5/6h[8:7],3,1,{8}7,7h[1:1],
,,{4}4,2,{8}8,8h[1:1],
,,{4}5,3,{8}1,1h[8:5],
,6,4,2,2h[2:1],7,5,3,
{4}3h[8:7],6,8,{8}2,2h[1:1],
,,{4}5,7,{8}1,1h[1:1],
,,{4}4,6,{8}8,8h[8:5],
,3,5,7,7h[8:3],2,4,6,
{1}3b<6-8-2-4-6b[32:1]/6b<1-3-5-7-1[4:55],
,{64}D8/D2,
A7/A2,D7/D3,A6/A3,D6/D4,A5/A4,{32}D5f,{1},{4},,,{16},,{8}2h[4:1],
4,5,2h[4:1],4,5,2h[4:1],4,
5,2h[4:1],4,5,2h[4:1],4,5,2h[4:1],
{32}4,2?-6[2.4868##0.3158],,,{8}5,2h[4:1],4,5,2h[4:1],4,5,
2h[4:1],4,5,2h[4:1],4,5,6,7,
{4}4b/2b,6b,{8}6h[4:1],5h[8:1],,4h[4:1],
{4}5h[8:1],{8}7h[4:1],6h[8:1],,3h[4:1],{4}4h[8:1],
{8}5,4,2,3,4h[4:1],3h[8:1],,2h[4:1],
{4}3h[8:1],{8}5h[4:1],4h[8:1],,1,2,3,
5/4h[8:3],6,{4}7h[8:13],{8}6,6h[4:5],6,5,
5h[8:7],5,4,4h[2:1],4,3,{4}3h[8:1],
{8}1b,2,{4}3h[2:3],{16},,,,,,,,,,Cfh[16:0],
Cfh[16:0],,,,,,,,,,,,,{4}5/4,
{16}7-5[8:1],,,8,{8}7,2-4[8:1],{16},1,{8}2,
{4}6,{16}7-5[8:1]/7-5[8:1],,,8/8,{8}7/7,2-4[8:1]/2-4[8:1],{16},1/1,{8}2/2,
{4}6/6,{128}7b-5b[8:1],7b-5b[8:1],{16},,{64},,,{128}8b,8b,,,,,,,7b,7b,,,,,,,,,,,,,,,2b-4b[8:1],2b-4[1.4112##0.1579],{16},,{64},,,{128}1b,1b,,,,,,,2b,2b,,,,,,,,,,,,,,,6b,
6b,,,,,,,,,,,,,,,{16}7,8,{8}7,{16}2,1,{8}2,3/4,6/5,7b/4b,
{16}1/8,1,2/1,2,2/3,3,3/4,4,4/5,5,5/6,6,6/7,7,7/8,8,
8/1,8,7/8,7,7/6,6,6/5,5,5/4,4,4/3,3,3/2,2,2/1,1,
{16}1/8,{32},{64},{128},{256},,{16}2,4,3,5,2,6,3,7,4,8,5p8>3b[1.5789##0.375],1p4<7[1.5##0.375],6,2,
,,,,,,,,,,,,,,,,{4}2-5[8:1]/6-1[8:1],
6b/2b,{16}4/8,7,6,4,3,2,6,5,
4,2,1,8,{8}7h[16:1]/3h[16:1],6h[16:1]/2h[16:1],{16}1/5,4,3,1,8,7,3,2,
1,7,6,5,{8}4h[16:1]/8h[16:1],3h[16:1]/7h[16:1],{16}2/6,5,4,2,1,8,4,3,
2,8,7,6,{8}5h[16:1]/1-6V84[4:3],3h[16:1]/7h[16:1],{24},,,,,,,,,,,,{12}E6/B5/B4/E4,
{384}B6,B3,{16},{384},,,,,B2,B7,{16},{64},{384},{128}E8,E2,{16},{192},{6}1bx/8bx<7>8<7>8<7>8<7>8<7<6<7<6<7<6<7<6<7<6>5<6>5<6>5<6>5<6>5>4<5>4<5>4<5>4<5>4>3<4>3<4>3<4>3<4>3>2>3>2>3>2>3>2>3>2>3>2>3>2>3>2>3>2>3<4>3<4>3<4>3<4>3<4<5>4<5>4<5>4<5>4<5<6>5<6>5<6>5<6>5<6<7<6<7<6<7<6<7<6<7[12:35],1h[4:1],{24},,,,,{8}1h[4:1],
,,{4}1h[4:1],{8},1h[4:1],,,1h[4:1],
,,1h[4:1],,,{4}1h[4:1],
{8},1h[4:1],,,1,1,{128}E3,E4,E5,E6,E7,E8,E1,E2,E3,E4,E5,E6,E7,E8,E1,E2,E3,E4,E5,E6,E7,E8,E1,E2,E3,E4,E5,E6,E7,E8,E1,E2,
{4}E3/2bz6[2:7],{8}1,1,1,1,,1,
{4}1,{8}1,1,1,1,{4}D1h[16:1]/E2h[16:1]/B2h[16:1]/B3h[16:1]/B4h[16:1]/E5h[16:1]/D5h[16:1]/E4h[16:1]/A4h[16:1]/D4h[16:1]/E3h[16:1]/A3h[16:1]/D3h[16:1]/A2h[16:1]/D2h[16:1]/A1h[16:1]/B1h[16:1]/E1h[16:1],
1,{8}1,1,1,1,,1,
{4}1,{24}1,1,1,1,1,1,{4}1-4[8:1]/8?-5[8:1],8b/1b,
6$b/6?z2[4:11],{8}8,8,8,8,,8,
{4}8,{8}8,8,8,8,{4}D1/E8/B7/E7/B6/E6/B5/E5/D5/A5/D6/A6/D7/A7/D8/A8/E1/B8,
8,{8}8,8,8,8$/5?s1<8z4[8:1]/4?z8>1s5[8:1],8,8,
{4},,{128}A5f,D5f,A4f,A5f,D5f,A4f,A5f,D5f,A4f,A5f,D5f,A4f,,A5f,D5f,A4f,{4},{16},,{8}7V13[4:1],
5,5,5,3V17[4:1],5,5,5,
7>1>3[4:1],5,5,5,3>1<7[4:1],5,5,5,
7h[4:1],5,{64}5/D8,A8,D1,A1,D2,A2,{32}D3,{8}5,3h[4:1],5,{64}5/D3,A2,D2,A1,D1,A8,{32}D8,{8}5,
7h[1:1],6h[8:7],5h[4:3],4h[8:5],3h[2:1],2h[8:3],1p4[3.5526##0],8<4[3.7105##0],
,,,,7x/3x,5<8b[8:1],5,5,
3,5>2b[8:1],5,5,7,5<3q4[1.8947##0],5,5h[8:13],
,,,,,,,,,,,,,6/4,
5/2,7/4,
1b/8b,{16}1,8,,1,,8,{8}1,{16}8,1,8,1,{8}8,
8/1,{16}1,8,1,8,1,8,{8}1,{16}8,1,8,1,8,1,
8,1,8,1,,8,,1,{8}8,{16}1,8,1,8,{8}1,
{16}1,8,1,8,1,8,1,8,1,8,1,8,1,8,1,8,
{8}1bx/8bx,{16}4,5,,4,,5,{8}4,{16}5,4,5,4,{8}5,
5/4,{16}4,5,4,5,4,5,{8}4,{16}5,4,5,4,5,4,
5,4,5,4,,5,,4,{8}5,{16}4,5,4,5,{8}4,
{16}4,5,4,5,4,5,4,5,4,5,4,5,4,6,4,7,
{8}4bx-7[8:1]/8bx-3-8[8:1],{16},,,,,,,,2,1,{8}3h[8:1],4h[8:1],
{4}3<6[4:1],6$/3?<6[4:1],1$/3?<6[4:1],4$/3?<6[2:1],
{8}6h[2:1],{16},,,,,,,,7,8,{8}6h[8:1],5h[8:1],
{4}6>3[4:1],3$/6?>3[4:1],8$/6?>3[4:1],5$,
{8}2/4-7b[5.0526##2.2105]*-7b[8:1],5,{4}6/4,{8}7/5-2b[4.4211##2.1316]*-2b[8:1],4,{4}3/5,
{8}2/4-8b[3.7895##2.2105]*-8b[8:1],5/3,{4}6/4,{8}7/5-1b[3.1579##2.2105]*-1b[8:1],4/6,{4}3/5,
{8}2/4-1b[2.5263##2.2105]*-1b[8:1],5/3,6/4b,7,7/5-8b[1.8947##2.2105]*-8b[8:1],4/6,3/5b,2,
7/2,{64}1,2,3,4,5,6,7,8,1,2,3,4,5,6,7,8,1,2,3,4,5,6,7,8,{4}1w5[8:1],1x,
{1}B6/E6/B5/B2/E3/B3/Ch[1:2]/8?-4b[0##2.2105]*-5b[0##2.2105]/1?-5b[0##2.2105]*-4b[0##2.2105]/7?-4b[0##2.2105]/2?-5b[0##2.2105],
{8},,,,,,,,8bxqq6qq4qq2qq8pp2pp4pp6pp8b[4:27]/1bxqq7qq5qq3qq1pp3pp5pp7pp1b[4:27]/8bxqq6qq4qq2qq8pp2pp4pp6pp8b[4:27]/1bxqq7qq5qq3qq1pp3pp5pp7pp1b[4:27]/2bxqq8qq6qq4qq2pp4pp6pp8pp2b[4:27]/3bxqq1qq7qq5qq3pp5pp7pp1pp3b[4:27]/2bxqq8qq6qq4qq2pp4pp6pp8pp2b[4:27]/3bxqq1qq7qq5qq3pp5pp7pp1pp3b[4:27]/4bxqq2qq8qq6qq4pp6pp8pp2pp4b[4:27]/5bxqq3qq1qq7qq5pp7pp1pp3pp5b[4:27]/4bxqq2qq8qq6qq4pp6pp8pp2pp4b[4:27]/5bxqq3qq1qq7qq5pp7pp1pp3pp5b[4:27]/6bxqq4qq2qq8qq6pp8pp2pp4pp6b[4:27]/7bxqq5qq3qq1qq7pp1pp3pp5pp7b[4:27]/6bxqq4qq2qq8qq6pp8pp2pp4pp6b[4:27]/7bxqq5qq3qq1qq7pp1pp3pp5pp7b[4:27],
,,,,Cf,{4},,{16},,,{32},Cf,
{4},,,{16},Cf,
{4},,,{32},Cf,
{4},,,{16},{32}Cf,
{4},,,{16},{32}Cf,{4},,,{16},Cf,
{4},,,{32},Cf,
{4},,,{16},,,{2}8b/1b,
7/2>6[4:3],A6/B6/E6,
{32}6p8[4:3],,,,,,,,,,,,,,,,,A8/E8/B8,,,,,,,,,,,,,,,{2}8>4[4:3],
E4/B4/A4,
{8}B5,4/5,,E7/E3,{4}6/3,7/2,
{2}3/4<8[4:3],A8/E8/B8,
{4}8q5[4:3],A5/E5/B5,A5/E5/B5,A5/E5/B5,
A5/E5/B5,{12}3,2,4,6,7,5,2,3,1,
3/8,7,6,5,3,2,1/8,7,6,5,3,2,
{4}1bx/6bx<2[2:1],{8}E1/D1,E2/D2,{4}E3/D3,{8}7x,7x>3[8:5],
,E1/D1,E2/D2,E3/D3,{4}E4/D4,{8}8x,8x>4[8:5],
,E2/D2,E3/D3,E4/D4,{4}E5/D5,{8}1x,1x,
,C,E7,E3,2b/3b,E6,E4,E5,
{4}5b/4b/3?>7[2:1],{8}E1/D1,E8/D8,{4}E7/D7,{8}2x,2x<6[8:5],
,E1/D1,E8/D8,E7/D7,{4}E6/D6,{8}1x,1x<5[8:5],
,E8/D8,E7/D7,E6/D6,{4}E5/D5,{8}8x,8x,
,C,E3,E7,7b/6b,E4/A3,E6/A6,E5/D5,
5b/4b,{16}3-1[8:1],5,{8}4,3/7,{16}6-4[8:1],8,{8}7,1/6,2,
3b/7b,{16}2-4[8:1],8,{8}1,6/2,{16}7-1[8:1],5,{8}6,4/7,3,
{4}2bpp5[8:3],{8}5,5>7[4:1],,7,6,5,
3x/4x,2,3x/4x-7>1-5b[8:3],1,4x/3xh[4:1],,,2,
{16}1b,2,3,4,7b,8,1,2,5b,6,7,8,3b,4,5,6,
{32}8b,1,2,3,6b,7,8,1,4b,5,6,7,2b,3,4,5,{64}7b,8,1,2,5b,6,7,8,3b,4,5,6,1b,2,3,4,7b,8b,1b,2b,5b,6b,7b,8b,3b,4b,5b,6b,1b,2b,3b,4b,
{16}1b,5,1b,6,1b,7,1b,8,1b,2,1b,3,1b,4,1b,5,
{32}3b,3b,5b,4b,8b,8b,6b,7b,1b,1b,3b,2b,7b,7b,5b,6b,4b,5b,4b,5b,4b,5b,4b,5b,6b/4b,5b/7b,6b/8b,7b,8b,1b,{48}2b/6b,3b/7b,4b/8b,
{32}5b/1b,E3/E7,{64}B6/B2,Cf,{32}B5/B1,{8}E1/D1/E5/D5,{1},{16},,{64},,,D8/D2,
A7/A2,D7/D3,A6/A3,D6/D4,A5/A4,D5f,{1},,{4},{16},,,{32},{8}2h[4:1],
4,5,2h[4:1],4,5,3h[4:1],5,
6,3h[4:1],5,6,4h[4:1],6,7,8,
1h[4:1],2,2,3h[4:1],8,8,7h[4:1],4,
4,5h[4:1],6,6,7/4,3,{4}6/2,
{32}8b/1b,7b/2b,{16}6b/3b,{1},{4},,,{16},,{64}5b/4b,D8/D2,
A7/A2,D7/D3,A6/A3,D6/D4,A5/A4,{32}D5f,
E
