&title=The World Ends Now
&artist=Akira Complex
&first=0
&des=In the next world we will meet again . I promise.
&clock_count=4
&lv_5=14
&inote_5=(200)
{1},,
{8},
{16},
{8}
27,,36,,4/5h[4:1],4,4,,4h[2:1]/5h[8:1],,5h[8:1],,,,,,
36,,27,,1/8h[4:1],1,1,,1h[2:1]/8h[8:1],,8h[8:1],,,,
1b,8b,
27,,36,,5/4h[4:1],5,5,,5h[2:1]/4h[8:1],,4h[8:1],,,,,,
36,,27,,8/1h[4:1],8,8,,8h[2:1]/1h[8:1],,1h[8:1],,,,
8b,1b,
26,,37,,2/6h[4:1],2,2,,3h[2:1]/7h[8:1],,7h[8:1],,,,,,
26,,37,,6/2h[4:1],6,6,,7h[2:1]/3h[8:1],,3h[8:1],,,,
5b,4b,
37,,26,,3/6h[4:1],3,3,,2h[2:1]/7h[8:1],,7h[8:1],,,,,,
36,,36,,3h[8:1]/6h[8:1],,
{16}
1,8,1,,
{8}
27,,3h[8:1]/6h[8:1],,,4h[8:1]/5h[8:1],,,
3-6[4:1],,2,,1-4[4:1],,8,,7-2[4:1],,6,,5-8[4:1],,4,,
3v6[4:1],,2,,1v4[4:1],,8,,7v2[4:1],,6,,5v8[4:1],,4,,
1,1,2,2,3,3,4,4,5,5,7,7,4,4,6,6,
{16}
2,4,2,4,3,5,3,5,2,6,3,5,2,6,3,5,1b>7[2:1],,,,
{4},,,
{8}
3h[4:1],1,4h[4:1],1,3h[4:1],1,4h[4:1],1,3h[4:1],1,4h[4:1],1,3h[4:1],1,4b,,
6h[4:1],8,5h[4:1],8,6h[4:1],8,5h[4:1],8,6h[4:1],8,5h[4:1],8,6h[4:1],8,5b,,
3h[4:1],1,5h[4:1],1,3h[4:1],1,5h[4:1],1,3h[4:1],1,5h[4:1],1,3h[4:1],1,5b,,
6h[4:1],8,4h[4:1],8,6h[4:1],8,4h[4:1],8,
{16}
1h[8:1]/7h[8:1],,,2h[8:1]/6h[8:1],,,3h[8:1]/5h[8:1],,,
{32}
4>1[8:1]*<7[8:1],,,,,,,4,
{16}
,,,
{8}
8<4[4:1],,4>8[4:1],,8<4[4:1],,4>8[4:1],,8<4[4:1],,4-8[4:1],,8,,2b,,
1q5[4:1],,5q1[4:1],,1q5[4:1],,5q1[4:1],,1q5[4:1],,5q1[4:1],,1,,7b,,
2bx-5[8:1]/7bx-4[8:1],,,,3bx-8[8:1]/6bx-1[8:1],,,,
{16}
2bx/7bx,,,2bx/7bx,,,2bx-4[8:1]/7bx-5[8:1],,2bx/7bx,,,,,,,,
{8}
2-5[4:1],,8,,7-4[4:1],,1,,
{16}
2-5[4:1],,2,,8,,,,
{8}
7V53[4:1],,1b,,
{4}
8-5[4:1],1,2-7[4:1],3,4-1[4:1],5,6-3[4:1],7,
8v5[4:1],1,2v7[4:1],3,4v1[4:1],5,6v3[4:1],7,
{8}
8,8,1,1,2,2,3,3,
{12}
4,4,6,6,5,5,7,7,3,7,4,6,3,7,4,6,
{24}
3,4,5,6,7,8,1,2,3,4,5,6,7,8,1,2qq5[4:3],
{4}
,,,,Cf,,,,
1>7[1:1],,,,
7>4[1:1],,,,
4<1[4:3],,,,
7<2[1:1],,,,
2<5[1:1],,,,
5>8[1:1],,,,
{8}
8xs4[4:3],,2b,,,2b,,1b,
1b>6[1:1],,B1,,B3,,B5,,
6x<3[1:1],,B6,,B8,,B2,,
3x<8[1:1],,B3,,B5,,B7,,
8xs4[2:1],,,,,
{16}
8b,,8b,,,,8b<3[1:1],,,,8b,,,,
{8}
B6,,B4,,
3x>6[1:1],,B3,,B1,,B7,,
6x>1[1:1],,B6,,B4,,B2,,
1xs5[2:1],,,,,,,,
{32}
2,,,,2,,,,2,,,,2,,,,2x/B1,B8,E8,,2,,,,2,,,,2,,,,
2x/B3,B4,E5,,2,,,,2,,,,2,,,,2x/B8,C,B4,,2,,,,2,,,,,,,,
6,,,,6,,,,6,,,,6,,,,6x/B7,B8,E1,,6,,,,6,,,,6,,,,
6x/B5,B4,E4,,6,,,,6,,,,6,,,,6x/B4,C,B8,,6,,,,6,,,,,,,,
{16}
2b,3,4,5,6,7,8,1,2/6b,5,4,3,2,1,8,7,6/3b,4,5,6,7,8,1,2,3/7b,6,5,4,3,2,1,8,
1xb,2,3,4,1xb,2,3,4,1xb,2,3,4,1xb,2,3,4,
{4}
1xpp5[2:1]/5xpp1[2:1],,,,
{8}
1>4[4:1],1,8,7,
6<1[4:1],6,5,4,
3<6[4:1],3,2,1,
8>3[4:1],8,7,6,
5<8[4:1],5,4,3,
2>5[4:1],2,1,8,
7>2[4:1],7,6,5,
4b,3b,2b,,
8<5[4:1],8,1,2,
3>8[4:1],3,4,5,
6>3[4:1],6,7,8,
1<6[4:1],1,2,3,
4>1[4:1],4,5,6,
7,7,8,1,
{16}
2bh[8:1]/8bh[8:1],,,3bh[8:1]/7bh[8:1],,,6bh[8:1]/4bh[8:1],,,
{32}
5x>2[8:1]*<8[8:1],,,,,,,5x,
{16}
,,,
{8}
1x-3[8:1],6,1-5[8:1],6-8[8:1],1V35[8:1],6,1,,
8x-6[8:1],3,8-2[8:1],3-1[8:1],8V64[8:1],3,8,,
8x-4[8:1],2,1-5[8:1],7,3x>8[8:1],7<4[8:1],3,7,
3,7,3bv1-4[16:6],7bv5-8[4:1],3bx/7bx,,,,
{8}
1x<6[8:1]/5x,,
{64}
1x/A5,D5,A4,D4,A3,D3,A2,D2,
{16}
,,
{8}
5x<8[8:1]/1x,,
{64}
5x/A1,D2,A2,D3,A3,D4,A4,D5,
{16}
,,
{32}
8x,E8,B7,B6,,,4x,E4,B3,B2,,,7x/E7,B6,B5,E5,3x/E3,B2,B1,E1,,,,,
{8}
Cf,,
2-5[8:1],,28,,7-4[8:1],,71,,2-4[8:1],18,7v8[8:1],,,,
5x,1x>7-2b[8:35],5x<3-6[8:34],,,,,,,
{1}
,,,,
Ch[8:3]f,
E
