&title=[プロセカ]私は雨
&artist=稲葉曇 / 東雲 絵名、鏡音 レン、宵崎 奏、朝比奈 まふゆ、暁山 瑞希 / 25時、ナイトコードで。 「プロジェクトセカイ カラフルステージ! feat. 初音ミク」
&first=0
&des=えななん
&lv_5=13
&inote_5=(144){1},
{16}6h[2:1]/4h[2:1],,,,,,,,,,4,,,,3h[2:1]/5h[2:1],,
{16},,,,,,,,,,1,,,,,,
{16}3h[2:1]/5h[2:1],,,,,,,,,,5,,,,6h[2:1]/4h[2:1],,
{16},,,,,,,,,,8,,,,,,
{16}1,,1,2,3,,2,3,4,,3,4,5,,5h[4:1]/6q4[64:17],,
{16},,,,,,,,,,1,,,,,,
{16}6pp6[8:3],,5,,4,,3,,,,2,,,,3h[4:1]/5q4[64:20],,
{16},,,,,,,,,,1,,,,,,
{16}8,,8,7,6,,7,6,5,,6,5,4,,4h[4:1]/3p5[64:17],,
{16},,,,,,,,,,1,,8z4[4:3],,1s5[4:3],,
{16},,,,,,,,,,,,,,,,
{16},,6h[4:1]/3p5[64:17],,,,,,,,8,,,,,,
{16}3,,2,,1v6[8:1],,,,6,,5,,5,,8-3[8:1],,
{16},,4^7[8:1],,4^1[8:1],,,,,,8,,8,,,,
{16}3qq3[32:11],,4,,5,,7,,,,8,,7,,6h[4:1]/4p8[8:1],,
{16},,,,5,,,1,7,,2,,38,,,,
{16}7,,6,,5v2[8:1],,,,2,,1,,1,,4^7[8:1],,
{16},,8^3[8:1],,8v5[8:1],,,,,,4,,4,,,,
{16}6pp6[32:11],,5,,4,,2,,,,1,,2,,3h[4:1]/5q1[8:1],,
{16},,,,4,,,8,2,,7,,6/8-4[8:1],,,,
{16}8^6[8:1]/3,,,,8^2[8:1]/5,,,,8v6[8:1]/3,,,,8v2[8:1]/5,,,,
{16}8^3[8:1]/2,,,,8^5[8:1]/6,,,,8v3[8:1]*v5[8:1]/2,,,,8,,,,
{16}8b,,,2,1,,75,,64,,53,,42,,3q8[12:1]/1,,
{16},,2,,,,,,,,,,,,,,
{16},,,,,,,,,,,,,,,,
{16}1b/5,,,,5,,,,5,,4,,5,,,,
{16}5/3>7[2:1],,,,5,,,,5,,,,5,,,,
{16}5/4,,,,4,,,,4,,5,,4,,,,
{16}4/6<2[2:1],,,,4,,,,4,,,,4,,,,
{16}45,,,,53,,,,5,,2,,5,,,,
{16}5/1^4[2:1],,,,5,,,,6,,,,7,,,,
{16}8,,7h[8:1],,1,,2h[8:1],,6,,5h[8:1],,3,,4^7[8:1]*^1[8:1],,
{16},,4w8[8:1],,,,4,,,,26,,1,8,1,8,
{16}2b-4[8:1],,3,,8-6[8:1],,7,,1-5[8:1],,2,,8,,7,,
{16}6v1[8:1],,4,,6,,2,,7v4[8:1],,1,,7,,3,,
{16}2^7[8:1],,7,,2v4[8:1],,4,,2<6[8:1],,7,,2,,4,,
{16}3v8[8:1],,2,,3,,1,,2v5[8:1],,1,,2,,8,,
{16}7-5[8:1],,6,,1-3[8:1],,2,,8-4[8:1],,7,,1,,2,,
{16}1-3[8:1],,8-6[8:1],,1-5[8:1],,8-4[8:1],,1^4[8:1],,8^5[8:1],,1,,8,,
{16},,2,,1-6[8:1],,1,,5-1[8:1],,5,,2,,3-6[8:1],,
{16}8-5[8:1],,3b,,8b-3[8:1],,1-6[8:1],,8b,,1b,,4,,5,,
{16}1V75[8:1]/6,,,,13,,,,3/8V24[8:1],,,,6/8,,7^4[8:1],,
{16},,3,,2-6[8:1],,1<3[4:1],,2,,1,,2,,1,,
{16}8^3[8:1],,3,,8v5[8:1],,5^8[8:1],,8^3[8:1],,3,,4,,5,,
{16}6-2[8:1],,8-4[8:1],,6,,8,,3w7[8:1],,,,3,,,,
{16}1-5[8:1],,2,,8-6[8:1],,7,,2-4[8:1],,3,,1-6[8:1],,8-3[8:1],,
{16}1b,,8b-5[8:1],,4-1[8:1],,8^3[8:1],,4^7[8:1],,8b,,4b,,8,,
{16}1v6[8:1],,2,,3v8[8:1],,4,,5v2[8:1],,6,,7,,8,,
{16},,2-6[8:1]/6,,35,,2,,5,,47,,25,,48,,
{32}1q5[12:1]*p5[12:1]/6,2,3,4,5,6,7,8,{16}1b,,,,8pp2[8:1],,4p8[8:1],,8<1[32:11],,4,,
{16},,1,,8qq3[16:5],,,,5,,5,,,,4,,
{16}1qq7[8:1],,5q1[8:1],,1>8[32:11],,5,,,,8>6[32:9],,,,3,,
{16},,8,,1,,,,4qq3[8:1]*pp5[8:1]/5,,,,,,,,
{16}2V83[4:1],,,,3V51[4:1],,,,1V73[4:1],,,,3V15[4:1],,,,
{16}4,,6,,8b,,,,,,,,,,,,
{16}5qq3[8:1],,1q5[8:1],,5<4[32:11],,1,,,,4<2[32:9],,,,7,,
{16},,4-1[8:1],,5,,4b-7[8:1],,6-3[8:1],,4b,,6b,,8,,
{16}2,1,2-5[8:1],1,3b/8b-4[8:1],,2-6[8:1],,8,,2,,7,7,5b^8[8:1],,
{16}3v6[8:1],,5,4,3b,,1,,{12}58,4,3,25,6,7,
{24}1,8,1,8,1,8,{16}2b/7b,,,,7v4[8:1],,3v8[8:1],,7,,3>3[2:1],,
{16},,7,,,,3-7[8:1],,,,8,,,,,,
{16}15,,1-7[8:1],2,3,,2-6[8:1],3,4,,3,4,5,,56,,
{16}8,,8-2[8:1],7,6,,7-3[8:1],6,5,,6,5,4,,2,,
{16}5qq3[8:1],,1q5[8:1],,5<4[32:11],,1,,,,4<2[32:9],,,,7,,
{16},,4-1[8:1],,6,,4b-7[8:1],,8-3[8:1],,4b,,8b,,,,
{16}4,,,,4,,6,,4/6,,,,4/7,,7,,
{16}4,,6,,6/4,,,,7/4^1[8:1],,8,,7/4,,6,,
{16}5,,2,,5,,3,,5/3,,,,5/2,,2,,
{16}5,,3,,3/5,,,,2/5^8[8:1],,1,,2/5,,3,,
{16}4,,7,,4,,6,,4/6,,8,,4/7,,7,,
{16}4,,6,,6/4,,5,,7/4^1[8:1],,8,,7/4,,6,,
{16}5-3[8:1],,5,,5-2[8:1],,5,,5-1[8:1],,5,,5-8[8:1],,5-7[8:1],,
{16},,,,,,,,3,,2,,1,,,,
{16},,,,,,,,,,,,,,,,
{16},,,,,,,,,,,,,,,,
