&title=Amnéhilesie
&artist=MisomyL
&first=4
&des=
&des_5=angrer
&lv_5=14+
&inote_5=(230){8}6h[8:5],4,3,2,{4}1-4[8:1],1-6[8:1],
1,{8}3h[8:5],5,6,7,{4}8-5[8:1],
8-3[8:1],8,{8}7h[8:5],5,4,3,
{4}2-5[8:1],2-7[8:1],2,{8}4h[8:5],6,
7,8,{4}1-6[8:1],1-4[8:1],1,
{8}6h[8:5],2,3,4,{4}5-2[8:1],5-8[8:1],
5,{8}3h[8:5],7,6,5,{4}4-7[8:1],
4-1[8:1],4,{8}6h[8:5],8,1,2,
{4}3-8[8:1],3-6[8:1],3,{8}1/7,1h[8:1]/7h[8:1],
,2/8,{4}2h[8:1]/8h[8:1],{8}3/1,3h[8:1]/1h[8:1],{4},{8}7/4,
6,5/2,3,7/4,6,5/2,3,
7/4,8,1/2,4,8/7,5,1/2,4,
8/7,5,1/2,4,3/8,7,1/6,2,
8/3,7,1/6,2,8/3,7,4/6,2,
3/5,7,4/6,2,3/5,7,4/6,2,
3/5,{16}6,4,{8}6,{16}3,5,{8}3,{16}6,4,{8}6,7/3,
4/6,3/7,2/8,{16}1,7,{8}1,{16}8,2,{8}8,{16}1,7,
{8}1,2/6,7/3,6/2,{12}5/1,8,7,6,5,4,
3,2,1,{48}7h[32:1],{24},{48}8h[32:1],{24},{16}1h[32:1],2h[32:1],3h[32:1],4h[32:1],5h[32:1],6h[32:1],{4}7b/2b,
{8},3b/6b,{4},{2}4h[2:1]/5h[2:1],
{4},6b/3b>7[4:3],{2},{4}7<3[4:3],
{2},{4}8,
{1},{4},5V71[4:3],
{2},{4}1V35[4:3],
{2},{4}5q2[4:3],
,{8},1,{2}2<7[2:1],
{4},2>5[4:3],{2},{4}5<8[4:3],
{2},{4}8>3[4:3],
{1},{4},8p4[4:3],
{2},{4}4p8[4:3],
{2},{4}8>4[4:3]*<4[4:3],
{1},{4},3/5h[2:1],
2,1,
6/4h[2:1],7,8,1/7h[2:1],
2,3,8/2h[2:1],7,
6,4/5-8[4:1],3,2,
8/1-4[4:1],7,6,4/5<8[4:1],
3,{8}2-5[8:1],1,{4}2,7,
6/2-5[8:1],{8}2b/8,8-4[8:1],8,8b/1,1-5[8:1],1,
1b/7,7-3[8:1],7,7b/4,4w8[8:1],4,{4}4b,
{2},{4}4/8,7,
6,4/5h[4:3],3,2,
1<1[2:3],{2},{4}1h[4:1],
,{8}8h,7h,{2}6h,
{4},{8}8/6,7-3[8:1],,1/7,{4}8-4[8:1],
{8}8/2,1-5[8:1],,1/3,{4}2-6[8:1],{8}8/2,1-5[8:1],
,1/7,{4}8-4[8:1],{8}8/6,7-3[8:1],,1/7,
{4}8v5[4:1],5<8[4:1],8-4[4:1],4>1[4:1],
1-5[4:1],5,{8}7,6h[8:1],{24}4,5,3,4,{16},{48},{8}2,
1,7-3[8:1],4,7-4[8:1],2,7-2[8:1],3,
7,4,1/3,2v5[8:1],,8/2,{4}1v4[8:1],
{8}1/7,8v5[8:1],,8/6,{4}7v4[8:1],{8}1/7,8v5[8:1],
,8/2,{4}1v4[8:1],{8}1/3,2v5[8:1],,8/2,
{4}1-4[4:1],4-7[4:1],7-2[4:1],2-5[4:1],
5-1[4:1],1-4[4:1],4,{8}3h[8:1],{24}5,4,6,
{4}5,1-5[8:1]/8-6[8:1],{2}1-3[8:1]/8-4[8:1],
{16}7,1,7,1,{8}2-6[8:1]/8-4[8:1],2/8,{4},,{8}1,
1,8/2,8/2,1-5[8:1]/7-3[8:1],7/1,{4},,{8}8,
8,1/7,1/7,8qq6[8:1]/2pp4[8:1],8/2,
{4},,{8}1,2,3,4,
{16}6,7,8,1,2,3,4,5,6,7,8,1,3,2,1,8,
7,6,5,4,3,2,1,8,{2}7<2[4:7],
{1},{4},,,8b/1b,
2b/7b,3b/6b,{8}7/1-6[8:1],8,3/1-4[8:1],2,
{4}5/1<6[8:1]*-6[8:1],1>4[8:1]*-4[8:1],1w5[8:1],1,
{8}3/7,3/7,2/6,2/6,1/5,1/5,8/4,8/4,
{16}5,1,{8}5,{16}2-6[8:1]*-6p2p6[4:11],6,{8}2,{2}2b,
{1},,{2},1-5[4.6957##0.2609],
{4},,,{8}8,2,
{1}1-5[3.1304##0.2609]*-5[3.1304##0.2609],
{4},{8}8,7,{2}1-5[1.5652##0.2609],
{4},,,{8}2,8,
{1}1,
{4},{8}6,7,{2}8w4[4.6957##0.2609],
{4},,,{8}1,7,
{1}8w4[3.1304##0.2609]*w4[3.1304##0.2609],
{4},{8}1,2,{2}8w4[1.5652##0.2609],
{4},,,1/7,
8,,,{16}5,6,5,6,
4,5,4,5,3,4,3,4,{8}2/5,2h[8:1]/5h[8:1],,6h[8:1]/1h[8:1],
,6/1,{16}8,7,8,7,1,8,1,8,2,1,2,1,
{8}3/8,3h[8:1]/8h[8:1],,5h[8:1]/2h[8:1],,5/2,{16}4,3,4,3,
5,4,5,4,6,5,6,5,{8}7/4,7h[8:1]/4h[8:1],,8h[8:1]/3h[8:1],
,8/3,{16}1,2,1,2,8,1,8,1,7,8,7,8,
{8}6/1,6h[8:1]/1h[8:1],{4},8s4[8:1]/7z3[8:1],7/8,
{16}2,6,2,6,1,5,1,5,{12}2h[24:1],4,8h[24:1],6,2h[24:1],8,
4h[24:1],6,8h[24:1],5,3h[24:1],1,5h[24:1],7,3h[24:1],5,1h[24:1],7,
{16}2,3,4,5,1,2,3,4,8,1,2,3,{8}4b/6b,2b/8b,
3b/5b,1b/7b,5b/4b,7b/2b,8/1-5[8:1],1,,7,
{4}7-4[8:1],7/2-5[8:1],2/8-4[8:1],8/3,
{8}2/6-3[8:1],6,,2,{4}2-7[8:1],2/5-8[8:1],
5/1-4[8:1],1/6,{8}8/2,2h[8:1]/8h[8:1],,7/1,
{4}1h[8:1]/7h[8:1],1>3[8:1]/8<6[8:1],8-4[8:1]/1-5[8:1],1>4[8:1]/8<5[8:1],
8b/1b,{2},{4}1q5[4:1],
5q1[4:1],1>4[8:1],{24}5-1[8:1],6,7,8,{16},{48},{4}5/7-4[8:1],
7/8b,{8}5q1[8:1],5,2q6[8:1],2,8<5[8:1],8,
{24}4-8[8:1],3,2,1,{16},{48},{4}4/2-5[8:1],1b/2,{8}8p4[8:1],8,
3p7[8:1],3,5<8[8:1],5,{24}1-5[8:1],2,3,4,{16},{48},{4}1/3-1[8:1],
{8}3/7b-4[8:1],8,7/2-8[8:1],3,2/6-3[8:1],7,6/1w5[8:1],2,
{2}1b,{4}2h[8:1]/6h[8:1],{8}1/7<4[8:1],8,
7/1>4[8:1],8,1/7-4[8:1],8,{24}3-7[8:1],2,1,8,{16},{48},{8}3/1p5[8:1],1,
2-5[8:1],2,{24}6-2[8:1],7,8,1,{16},{48},{8}6/8q4[8:1],8,7-4[8:1],7,
{4}3<6[8:1],{8}2,1,8<4[8:1],7,{4}6h[4:1],
{8}3h[8:1],{24}5,4,6,{8}5-1[8:1],7,{2}5b,
{4},1<6[8:1]/2-5[8:1],2/1>4[8:1],{8}7/1,8,
{24}1,2,3,4,5,6,7p6[8:3],8,{6}1,{24}2,{16},{48},{24}3,{16},{48},{4}4p8[4:1],
8p4[8:1],4>1[8:1],{24}8b-4[8:1],7,6,5,{16},{48},{4}8/6b-1[8:1],
6/5b,{8}8p4[8:1],8,3p7[8:1],3,5<8[8:1],5,
{24}1b-5[8:1],2,3,4,{16},{48},{4}1/3b-8[8:1],4b/3,{8}5q1[8:1],5,
2q6[8:1],2,8<5[8:1],8,1b,2s6[8:1],,3b,
{4}4s8[8:1],{8}5b,6z2[8:1],,7b,{4}8,
{16}6b/3,4,5,6,4b/7,3,2,1,4b/8,7/3,6/2,5/1,{32}8b/4,7,6,5,4,3,2,1,
8-4[8:1],7,6,5,4,3,2,1,{4}8b/6bq2[8:1],6/3-8[8:1],3/5-1[8:1],
1<5[6:1],{24}4-8[8:1],3,2,1,{16},{48},{4}4w8[8:1],4,
{12}5h[8:1],2h[8:1],1h[8:1],4h[8:1],7h[8:1],8h[8:1],6h[8:1],1h[8:1],5h[8:1],2h[8:1],6h[8:1],3h[8:1],
7h[8:1],4h[8:1],6h[8:1],3h[8:1],5h[8:1],2h[8:1],{8}4,5/3,2h[16:1]/6h[16:1],2h[16:1]/6h[16:1],
7h[16:1]/1h[16:1],7h[16:1]/1h[16:1],5,6/4,3h[16:1]/7h[16:1],3h[16:1]/7h[16:1],8h[16:1]/2h[16:1],8h[16:1]/2h[16:1],
{16}1,2,3,4,1,8,7,6,{32}1,2,3,4,5,6,7,8,{4}1bw5[4:1],
,,{8}2/7,7-3[8:1],7,1,
1-5[8:1],1,{4}1/6-1[8:1],6/4-8[8:1],4/7,
{8}6/2,2-7[8:1],2,6,6-3[8:1],6,{4}6/1-4[8:1],
1/5-8[8:1],5/2,{8}7/2,2-6[8:1],2,8,
8-4[8:1],8,{4}8/3-8[8:1],3/5-1[8:1],5/2,
{8}3/7,7-2[8:1],7,3,3-6[8:1],3,{4}3/8-5[8:1],
8/4-1[8:1],4/7,{16}1/5,2/6,3/7,4/8,5,6,7,8,
1-7[8:1]*-6[8:1],2,{8}3/7,{4}1-3[8:1]*-4[8:1],{2}1w5[8:1],
{16}8/4,7/3,6/2,5/1,4,3,2,1,8>3[8:1]*-3[8:1],7,{8}6/2,{4}8<5[8:1]*-5[8:1],
{2}8w4[8:1],{24}2,3,4,8,7,6,1,2,3,7,6,5,
2,3,4,8,7,6,1,2,3,7,6,5,8,7,6,2,3,4,1,2,3,7,6,5,
{32}2b,3,4,5,6,7,8,1,2,3,4,5,6,7,8,1,2,3,4,5,6,7,8,1,6b/2b,5,4,3,2,1,8,7,
6b,5,4,3,2,1,8,7,6b-2[8:1]*w2[6.5217##0.2609],5,4,3,2,1,8,7,{2}6b,
{1},6w2[4.6957##0.2609],
{2},6w2[3.1304##0.2609]*w2[3.1304##0.2609],
{1},6w2[1.5652##0.2609],
