&title=alka tale(tv size ver.)
&artist=VISUAL ARTS/Key
&first=1
&des=xsck
&lv_5=12.7
&des_5=xsck
&inote_5=
(120){16},1x/8xh[#0.7467868],(120.3448),1xh[#0.4971449],(120.6897){8},(121.0345),(121.3793){16},8/1>2[0.4929##0.2454],(121.7241){8},(122.069){16},8/1,(122.4138),7,
(122.7586),2/7h[#0.7300749],(123.1034),2h[#0.4860351],(123.4483){8},(123.7931),(124.1379),(124.4828){16},7/2>3[0.4807##0.2393],(124.8276),7,(125.1724),6/2,
(125.5172),6h[#0.7140951],(125.8621),3h[#0.4754114],(126.2069){8},(126.5517),(126.8966),(127.2414){16},6,(127.5862),6,(127.931),4/5h[#0.9329863],
(128.2759),4,(128.6207),3,(128.9655),2,(129.3103),1,(129.6552),{32}5/1,6/2,(130){8}7h[#0.3458486]/3h[#0.3458486],(130.3448),(130.6897),
(131.0345)8,(131.3793)7b,(131.7241)6,(132.069)5-1[0.4537##0.226],(132.4138)5h[#0.4525366],(132.7586),(133.1035),(133.4483),
(133.7931){32}1b,2,{16}3,(134.1379){8},(134.4828){16},3,(134.8276),4,(135.1724),5,(135.5172){8},(135.8621),(136.2069)5/4,
(136.5517)3/6,(136.8965)7/2,(137.2414),(137.5862){32}1/8,7/2,{16}6/3,(137.931),5x<4[0.4339##1.3971]/4x>5[0.4339##1.3971],(138.2759){8},(138.6207),(138.9655),
(139.3103),(139.6552),(140){4},{8},,4,4bx-8[0.6429##0.6429],
{16},4x,,,{4}4xh[2:1],{8},,8,8b-4[0.6429##0.4286],
{16},8,,,{4}8h[2:1],{8},4x,{4}4h[8:1],
3,{16}2,,,1,,8,,,7h[16:3],,,6h[16:3],
,,{8}5h[4:1],,,,5/4,{16}3,,,2,
,,{8}1-4[8:9],,8/1,7,2,{16}6,,,3,
,,{8}5,{16},5,,5,,,,,5/4,,,6/3,
,,{8}2/7h[16:3],{16},2,,A7/A2,,B7/B2,,Ch[16:3],,,,,(144),
,,Cf,,,,,{8}5,4x/5x,{16}4x,5x,{8}4x,
3/6h[8:3],{32}3,2,{16}1,,,,,{8}6,3/6,{16}3,6,{8}3,
2/7h[8:3],{32}2,3,{16}4,,,,,{8}8,1x/8xh[8:1],{16}1x,8xh[8:1],{8}1x,
7h[8:1],,,7,{16},7xh[16:3],,,,6xh[8:1],,,{2}5xh[4:1],
{16}4/5,3/6,{8}2h[4:1]/7h[4:1],,,,8b-5[16:1],
1-4[16:1],8,1,5h[8:1],{16},6h[8:1],,,{8}7h[4:1],
Cf/B3/B2/E3,,,8,1h[8:1],{16},2h[8:1],,,{8}3h[8:3],
Cf/B6/B7/E7,,,,3,,2,
,1,{16},8,,7,,6,,5bh[16:7],,,,4,
,,{8}3,{16},4,,,{8}5,4,{32},,,,1b,2,{16}3,
,6,,,{8}4,5,4,5bh[4:1],,4,
{4}3,{16}2,,,1,,,{8}8-4[8:1],,8/1,
{4}1-5[8:1],{8}1/8,7,2,6,{4}3,
4h[8:1],{8}3h[8:1],2h[8:1],{4}1h[8:1],8h[4:1],
4h[4:1],{8}8,4,7,3,{4}6,
2,{8}5-1[8:1],1-4[8:1],{2}5/4-8[8:1],
{8},8bx,{16},7bx,,,{8}6bx,5bxh[4:3],,,{4}1x,
2x,{2}3x/Cfh[8:7],
{16},,,,,,,,6,7,{8}8bx-5[8:1],1-4[8:1],8-4[8:1],
1-5[8:1],8b,1,8,{4}1h[8:1],{8}2-7[8:1],2,
{4}2x,{8}3x/8-6[8:1],6-4[8:1],8/4-2[8:1],3h[8:1],,1,
{4}1>5[4:1],5<1[4:1],1>5[4:1],{8}5<1b[4:1],5,
{16},,,,,,,,2,3,{8}4h[16:3]/Cf,,,1-3[16:1],
1-5[16:1],1bx-7[16:1],1,1,6bx,{16},5bx,,,{4}4bx,
{8}5<6[16:1]/4>3[16:1],4-1[8:1]/5-8[8:1],5/4,5/4,{16},,,,8/1,
7/2,{8}6/3,5,4,{4}5,{8}E7f/B7/B6,E1f/B8/B1,
{2}E3f/B2/B3,{16}8,7,{8}6-4[8:1],4-2[8:1],6/2-8[8:1],
8-6[8:1],6-2[8:1],4,2,{4}8,{8}5/4>3[8:1],5,
{4}5/4b,{8}4/5<7[8:1],4,{4}4/5b,{8}5/4>1[8:1],5,
{4}4b/5<8[4:1],5/8>3[4:1],3<6[8:1],{8}1,2,
{2}3h[16:5],{16}7,6,{8}5,,,{4}7<2[8:3],
{8}7,2>7[8:3],2,1bx,{16},2bx,,,{4}3bx>6[8:3],
{8}3,6<3[8:3],6,5b,{16},6b,,,7b<5[1.1458##0.1042],
,,,,1x,,1x,,1,{32},,2b/7b,3,{4}4,
{8},,8-4[8:1],1-5[8:1],8,1b,{16},2b,,,{1}3b<3[4:5]/6b>6[4:5],
{8},,,,,Cf/A4/A5/D3/A3/E3/A2/B5/E7/D7/A7/A8/B8/A1/B1/A6/B4,
E
