&title=有兽焉
&artist=演唱: 洛天依 / 作词: 徐博&李乌 / 作曲: 大河内航太 / 调教: 哈士奇P
&first=0
&des=蓝色侏儒小熊代写之谱师你可以停止更新吗这首歌真的好难听
&lv_5=13
&inote_5=(142){1},
{4},,1>7[24:5],,
{1}8bxpp5[2:1],
{4}2bxpp5[8:3],,,{8}E7f,Cf,
{1}E3f/1bxqq4[2:1]*qq3[2:1],
{16}7bxh[2:1],,,5bx,,,8bx<2b[24:5],,{4}2bx,,
{16}1h[16:3],,,4h[16:3],,,3,,5-2[8:1],,,6,,,7,,
1h[16:3]/8,,,5h[16:3],,,3,,6-2[8:1],,,7,,,8,,
12,,,4,6,,6,,2^5[8:1],,5^8[8:1],,8,,,,
{4}1-5[8:1],8^3[8:1]/1^6[8:1],18,{16}E7,E6,E4,E3,
{16}8h[16:3],,,5h[16:3],,,6,,4-7[8:1],,,3,,,2,,
7bx/1bx,,,2bx/4bx,,,7bx-1-6-4[24:7]/5bx,,,,4,,3,,2,,
{8}1^7[12:1],1,2p6[8:1],2,4-7[8:1]*-1[8:1],,4,,
12,34,65,7h[8:3]/8,,,Cf,,
{12}36,4,5,36,4,5,3/6^1[8:1],,,,,,
{4}2-4[8:1]/1,4,5-1[8:1]/4,1,
{8}2-4[8:1],5-1[8:1],,,D3,E4,E6,D7,
{4}8-4[8:1]/1,4,3-1[8:1]/4,1,
{8}8-4[8:1],3-1[8:1],,,D7,E6,E4,D3,
{4}1-4[8:1],6-2[8:1],5-8[8:1],1>7[8:3],
{8}E3,E4,E6,E7,8^5[8:1]*^3[8:1],,,,
{8}4V68[4:1],,8V24[4:1],,4,,7,7,
{16}4-7[8:1]*-8[8:1],,,,,,,,2>7b[48:9]/1>7b[48:9],,,78,,,,,
{16}8x-4[8:1],,,1,8,,2,,5-7[12:1],,,4,5,,3,,
{8}2-4[8:1]/1-5[8:1],4-8[8:1],,,A6,B7,B3,A2,
{16}7-5[8:1],,,8,7,,1,,4-8[8:1],,,3,4,,2,,
{8}1v4[8:1]*v6[8:1],1,,,A2,B3,B7,A6,
{4}1^4[8:1],8v5[8:1],2^5[8:1],1v6[8:1],
3^6[8:1],2qq1>7b[16:6],4h[2:1],,
{8}1,3,5,7,E2f/D2/A2,E4f/D4/A4,E6f/D6/A6,E8f/D8/A8,
{8},1bpp8[4:1],,5b<4b[24:7],5b,,E1,,
{8}1bx-5[8:1],6,7,8,1x-5[8:1],4,3,2,
1bx-3[8:1],,1bx-5[8:1]*-7[8:1],,1bx>6b[6:1],,7,8,
1bx-5[8:1],2,3,4,5x-1[8:1],6,7,8,
1bx^4[8:1],,1bx-7[8:1]*-6[8:1],,1bxv2-4b[6:1],,1bx,,
8bx-4[8:1],3,2,1,8x-4[8:1],5,6,7,
8bx^3[8:1],,8bxq4[8:1]*p4[8:1],,8bxqq3b[4:1],,,,
{8}E1,C,E5,,,1bxv2b[8:1],2bxv4b[8:1],5bx,
,6bx^8v3[16:3],4bx,1bx,3bx^1v6[16:3],,D1/E1f/B8/B1,,
{16}5x^3[8:1],,,,57,,,,1^7[8:1],,,2,1,,3,,
56,,48,,,2,,,7,75,,2,24,,1,8,
1bh[16:3],,,7bh[16:3],,,5x<4b[4:1],4x,3bx,,,,{48}E1f/A8/A1/B8/B1,C,E5,,,,,,{12},
{16}8x-6[8:1],,,7,,,5h[16:2],,4-7[8:1]*-8[8:1],,,,4,,,,
7-5[8:1],,,6,,,4h[16:2],,3-8[8:1]*-7[8:1],,,,3,,,,
6^8[16:1],,,2>6[16:3],,,1,,7V53[16:3],,,,8,,,,
1b-7[16:1],,,2b-6[12:1],,,4bqq5b[16:5],,,,E6,,E7,,E8,,
8x-5[8:1],,,4,8,,3,,2^8[8:1]/4,,,5,2,,6,,
{4}7-4[8:1],1-6[8:1]/7,4-1[8:1]/1,45,
{8}8-4[8:1],8,1-5[8:1],1,6^3[8:1]*-3[8:1],6,,,
{16}8b/2b,,,5b/7b,,,4b/2b>7b[6:1],,1b/8b,,
{48}E3,E4,E5,E6,E7,,{16},,8x,8x,
{16}1x^3[8:1],,,2,,,4h[16:2],,5v2[8:1]*q1[8:1],,,,5,,,,
2^4[8:1],,,3,,,5h[16:2],,6^1[8:1]*q2[8:1],,,,6,,,,
3-1[16:1],,,7V53[16:3],,,8,,2V47[16:3],,,,1,,,,
8b^2[16:1],,,7bq3[12:1],,,5bV74-8b[16:5],,,,E4,,E3,,E2,,
1x^4[8:1],,,8,1,,7,,6-8[8:1]/5,,,4,6,,2,,
{4}3>6[24:5],6<3b[24:5],4v1[8:1]*-7[8:1],4,
{16}Ch[2:1],,,,,,,,B2/A2/D3,,,A8/A1/D1/E1,,,B7/A7/D7,,
{12}6x/5x,4,3,28,7,6,5/1>7b[24:5],,,,,,
{16}8h[16:3],,,5,6,,3,,5^8[8:1],5,,2,,,2,,
8h[16:3]/1,,,5,6,,2,,4q8[8:1],4,,1,,,1,,
87,,,5,3,,3,,7^4^1[4:1],,4,,1,,,,
{4}8-4[8:1],8^5[8:1]/1^4[8:1],18,{16}E3,E4,E6,E7,
{16}1h[16:3],,,4,3,,6,,4^1[8:1],4,,7,,,7,,
2b/1b,,,7b/5b,,,1b-5-3-8[24:7]/4b,,,,8,,7,,6,,
{8}5-3[12:1],5,6-2[8:1],6,8p3[8:1]*q5[8:1],,8,,
{8}24,45,57,1h[8:3]/8,,,Cf,,
{12}53,3,3,46,6,6,{16}1,,,7>3[8:1],,,5,,
{1}3bpp1[16:7]*pp2[16:7],
{4}7bqq4b[16:5],,
{8},3w7[32:3],15,Cf/B6/B7/B8,
