&title=ノンブレス・オブリージュ
&artist=ピノキオピー
&first=0
&des=Non-breath oblige
&lv_6=13+
&inote_6=(74){2},
{8}5-3^2p8b[8:6]*-7^8[8:3],,,,
,,,,
7q4pp5V71[8:6],,,,
1V35V71[8:4],,,,
,,
{8}6h[8:32],,
4x,,5xh[64:1],,
3x,,5xh[64:1],,
2x,,5xh[64:1],,
3x,,5xh[64:1],,
{64}4x,,,,,,,,,,,,,,,,4x,5x,,,,,,,,,,,,,,,
3x,,,,,,,,,,,,,,,,4x,5x,,,,,,,,,,,,,,,
2x,,,,,,,,,,,,,,,,4x,5x,,,,,,,,,,,,,,,
3x,,,,,,,,,,,,,,,,4xV68[16:2],5xv7[64:7],,,,,,,,,,,,,,,
{16},,,6xV42[24:4],3x-5[48:5],,,,,,,
5xV31[24:4],4xv2[48:5],,,,,,,
7xV13[24:4],2x-8[48:5],,,,,,,
1xV75[24:4],5xv8[48:5],,,,,,,
{16}3xV57[24:4],8xv3[48:5],,,,,,,
8xV24[48:7],4xv1[48:4],,,,4x>5[4:1],,,5,5,,4x>4[16:3]*p4[16:3],,4,,4bq4[16:3],,,,,,
8x-2[32:1],,8,,1x-3[32:1],,8,,
2x-4[32:1],,8,,3x-5[32:1],,8,,
4x-6[32:1],,8,,5x-7[32:1],,8,,
6xh[8:1],,8,,
6x-1[32:2],6,2-5[32:3],,6/5z1[32:4],,,,,,
6x<1[32:2],6,2>5[32:3],,6/4w8[16:1],,,,,,
3x-8[32:2],3,7-4[32:3],,3/4s8[32:4],,,,,,
3xh[8:6],,6xbh[8:1],,,,
8,8,1,1,8,8,1,1,8p1[48:7]/5,8,14,1,85,,
3xbh[8:4],,
1,1,8,8,1,1,8,8,1q8[48:7]/4,1,85,8,1/3x<6[48:4],,
{8}4,1b-3b[48:2],7xV15[48:6],5-7[48:2],7,
2qq8[48:6],1,7p3[48:5],6x,4^6[48:2],5,
8x-4[16:1],4,4xpp5[32:5]*qq3[32:5]/8xb,,4b,,
{32}7-5-8-4-1-3<3<3[8:8],,7,7,,5,5,,
8,8,,3,3,,1,1,,
3,3,,5,5,,2,2h[4:1],,,,,,,,,,,,,,,,
8p4[12:1]*q4[12:1],,,,,,8,,
8bpp8[8:1]*qq8[8:1],,,,,,,,,,,,,,,,
3qq5[16:4],,5,,6,,7,,
3h[32:4],,,,,,,,2h[32:3],,,8h[32:3],,,2,,2-4[32:1],,,,,,,,
8-2[32:1],,,,7,,,,6-8[32:1],,,,5,,,,4-6[32:1],,,,3,,,,2b,,,,,,,,
{32}2-4-1-5-8-6>6^5^4^3^2^1^8^7^6[8:8],,2,2,,4,4,,
1,1,,6,6,,8,8,,
6,6,,4,4,,7,7h[4:1],,,,,,,,,,,,,,
5x,,5xp1[12:1]*q1[12:1],,,,,,
5,,5bpp6[8:1]*qq4[8:1],,,,,,,,,,,,,,,,
6bh[32:3],,,5h[32:3],,,4,,
3xbh[32:3],,,4h[32:3],,,5,,
7qq1[32:7]*qq7b[32:5],,,4xh[32:3],,,,,
,,,,,,,,
3bh[32:3],,,4h[32:3],,,5,,
6xbh[32:3],,,5h[32:3],,,4qq6[32:7],,
3xbv6[32:5],,,,,,,,,,,,,,,,
{32}2x,4,2,4,2h[16:1],,6,8,6x,8,6h[16:1],,2,4,2,4,2hx[16:1],,6,8,6x,8,6h[16:1],,2x,4,3,5,4h[16:1],,6,8,7x,1,8h[16:1],,2,4,3,5,4hx[16:1],,6,8,7,1,8h[16:1],,2x,5,3,6,4hx[16:1],,6,1,7x,2,8hx[16:1],,2x,5,3x,6,
{32}4hx[16:1],,6,1,7,2,8h[16:1],,2x,6,3,7,4h[16:1],,6,2,7x,3,8h[16:1],,2x,6,3,7,4hx[16:1],,6,2,7,3,8h[16:1],,2x,7,3,8,4h[16:1],,6,3,7x,4,8h[16:1],,2,7,3,8,4hx[16:1],,6,3,7x,4,8h[16:1],,
{64}2x,3,4x,5,6x,7,8x,1,2xb,,,,,,,,
{32}6x,5,6,5,7,7,2,1,2x,1,3,3,6,5,6,5,7x,7,2,1,2x,1,3,3,
{32}6x,5,6,4,7x,7,2,1,2x,8,3,3,6,5,6,4,7x,7,2,1,2,8,3,3,
{32}6x,5,7,4,8x,8,2,1,3x,8,4x,4,6x,5,7x,4,
{32}7b,8,6,1,5,2,8,1,7,2,6,3,1,2,8,3,7b,4,8,1,7,2,6,3,7,5,6,2,4,3,6,5,7b,3,1,2,6,8,7,2,4b,3,5,4,6b,5,7,6,
{64}8xb,1xb,2xb,3xb,4xb,5xb,6xb,7xb,8xb,1xb,2xb,3xb,4xb,5xb,6xb,7xb,8xb-4b[16:1],1xb,2xb,3xb,4xb,5xb,6xb,7xb,8xb,,,,,,,,
{8}2xh[8:12],,,,,,,,,,,,
6h[8:4],,,,
5h[8:4],,,,
4h[8:4],,,,
3h[8:4],,,,,
{32},,3V58[8:7]>4[16:1]/5V38[8:7]<4[16:1],,26,,,71,,,35,,
