&title=final feast
&artist=ワンー feat. 重音テトSV
&first=0
&des=Dororo
&lv_5=13
&inote_5=(136)
{1},
{16},,,,,,,,1xbh[8:1]/6xbh[8:1],,,3xh[8:1]/7xh[8:1],,,2x/4x,,
{16},,8xbh[8:1]/3xbh[8:1],,,2xh[8:1]/6xh[8:1],,,5x/7x,,4,5,3xh[16:3],,1,1xh[16:3],
{16},8,8xh[16:3],,6<3[4:1],6xh[16:3],,,,,,,{12}4x,4,4,
{16}5b/3b,,,E2/B2,,,E7/B6,,,4,,4,,,E2/B2/E7/B6,,
{16}3x/5x,,,E2/A1,,,A7/E7,,,4,,4,,,E2/A1/A7/E7,,
{16}5x/3x,,,E2/B2,,,E7/B6,,,4,,4,,,E2/B2/E7/B6,,
{16}3x/5x,,2,4,,5,2,,7,5,,4,7,,82,,
{16}4b/6b,,,E8/B7,,,E3/B3,,,5,,5,,,E8/B7/E3/B3,,
{16}6x/4x,,,E8/A8,,,A2/E3,,,5,,5,,,E8/A8/A2/E3,,
{16}4x/6x,,,E8/B7,,,E3/B3,,,5,,5,,,E8/B7/E3/B3,,
{16}6x/4x,,7,1,6,2,8h[8:1],,{24}1,7,1,{16}7,,2b/6b,,,,
{16}4-1[8:1],,,,4b/E7f,,,,4h[8:1]/2h[8:1],,,,3h[8:1]/E7,,,,
{16}2h[8:1]/8h[8:1],,,,3h[8:1]/E7,,,,2x^7^2[4:1],,7x,,6x,,5x,,
{16}4-1b[8:1],,,,4b/E7f,,,,5h[8:1]/2h[8:1],,,,3h[8:1]/E7,,,,
{16}1h[8:1]/6h[8:1],,,,3h[8:1]/E7,,,,2xbh[8:1],,4xbh[8:1],,5xbh[8:1],,7xb,,
{16}8-5[8:1],,,,8b/E3f,,,,8h[8:1]/6h[8:1],,,,7h[8:1]/E3,,,,
{16}6h[8:1]/4h[8:1],,,,7h[8:1]/E3,,,,6x^3^6[4:1],,3x,,2x,,1x,,
{16}8-5b[8:1],,,,8b/E3f,,,,1h[8:1]/6h[8:1],,,,7h[8:1]/E3,,,,
{16}5h[8:1]/2h[8:1],,,,7h[8:1]/E3,,,,5-1[8:1]/3-7[8:1],,26,,Cf,,,,
{16}3x-5[8:1],,2,,7-1[8:1],,6,,3-5[8:1],,2,,7-1[8:1],,6,,
{16}2-6[8:1],,4,,7-1[8:1],,1,,2-6[8:1],,4,,7-1[8:1],,1,,
{16}3-5[8:1],,5,,7-1[8:1],,8,,3-5[8:1],,5,,7-1[8:1],,8,,
{16}2,,2bh[16:3],,,4bh[16:3],,,6b<4[4:1],,,,E5f,,,,
{16}6x-4[8:1],,7,,2-8[8:1],,3,,6-4[8:1],,7,,2-8[8:1],,3,,
{16}7-3[8:1],,5,,2-8[8:1],,8,,7-3[8:1],,5,,2-8[8:1],,8,,
{16}6-4[8:1],,4,,2-8[8:1],,1,,7-3[8:1],,6-2[8:1],,,,,,
{16},,1b/4b,,,8b/5b,,,6b-1[8:1]/7bV52[8:1],,,,{32}E6f,Cf,{16}E2f,,,
{16}8xz4b[4:7],,,,,,,,,,,,,,,,
{16},,,,,,,,,,,,,,,,
{16}Ch[1:1],,,,,,,,,,,,,,,,
{16}8h[8:1],,,,7h[8:1]/1h[8:1],,,,{24}2,6,2,{16}6,,{12}3,4,5,
{16}3/6<3>6[1:1],,,,,,4,,4h[4:1],,,,,,,,
{16}3>6<3[1:1],,,,,,5,,5h[4:1],,,,,,,,
{16}6<3>6[1:1],,,,,,4,,4h[4:1],,,,,,,,
{16}3>6b[2:1],,,,,,5,,5h[4:1],,,,,,,,
{16}2^5^2[2:1],,,,6p1[4:1],,,,,,,,,,8,,
{16}8q5p8[2:1],,,,5q2b[4:1],,,,,,,,,,,,
{16}7^4^7[2:1],,,,3q8[4:1],,,,,,,,,,1,,
{16}1xh[4:1],,,,Chf[4:1],,,,E7/E3/B7/B2/B6/B3,,,,,,,,
{16}2p6q3[2:1],,4,,,,4,,,,4,,,,4,,
{16}3q5[2:1],,8,,,,8,,,,8,,,,48,,
{16}7q3p6[2:1],,5,,,,5,,,,5,,,,5,,
{16}6,,5x/7x,,,4x/5x,,,4xpp6[8:1]*qq2[8:1]/2x,,,,,,,,
{16}3x,,3-1[8:1],,,,4-8[8:1],,,,3-1[8:1],,,,4,,
{16}6x,,6-8[8:1],,,,5-1[8:1],,,,6-8[8:1],,,,5,,
{16}4x,,4-1[8:1],,,,5-8[8:1],,,,4-1[8:1],,,,5,,
{16},,2b/7b,,,3b/6b,,,4b^1[8:1]/5b^8[8:1],,,,,,,,
{16}2v3-5[4:1]/6,,,,1,,1-7v6b[4:1],,,,4,,4,,,,
{16}3-6[8:1],,,,2-7[8:1],,,,5^8b[8:1],,5^2[8:1],,,,,,
{16}8p4[8:1],,,,4q8[8:1],,,,3-7b[8:1],,3V52[4:1],,,,,,
{16}6-8[8:1]*-1[8:1],,8,,,,,,{32}D2,D3,D4,D5,D6,D7,D8,D1,{16}Cf,,,,
{16}2xb/7xb,,3,4,2h[8:1],,6,5,7h[8:1],,3,4,1h[8:1],,6,5,
{16}8h[8:1],,{24}D3,B3,D4,{16}E5,,{24}D7,B7,D8,{16}E1,,3,,2h[8:1]/6h[8:1],,,,
{16}1b,8,1,8,2,4,3h[8:1],,7,5,6h[8:1],,2,8,3,7,
{16}1x,6,5,5,,2,4,4,,8,5,5,,1,7,3,
{16}1b,,,,,,,,,,,,,,,,
{32}E3,E4,{16}E5,,,,,,,,,,,,,,,
{32}E7,E6,{16}E5,,,,,,,,,,,,,,,
{16}4q5[4:3],,,,,,,,,,,,,,,,
{16}6h[8:1],,,,3h[8:1]/7h[8:1],,,,4x-2[8:1],5,4-6[8:1],5x,,,,,
{16}3h[8:1],,,,6h[8:1]/2h[8:1],,,,5x-7[8:1],4,5-3[8:1],4x,,,,,
{16}8h[8:1],,,,3h[8:1]/5h[8:1],,,,2x-5[8:1],6x-1[8:1],2,6x,,,,,
{16},,2x/4x,,,5x/7x,,,1x/8x,,E3,,E7,,,,
{16}2h[8:1]/4b,,1,,3h[8:1]/8h[8:1],,,,2h[8:1]/4,,7,,1h[8:1]/6h[8:1],,,,
{16}2h[8:1]/4,,8,,3h[8:1]/4,,8,,5h[8:1]/4,,8,,6h[8:1]/4,,8,,
{16}1h[8:1]/7,,4,,2h[8:1]/5h[8:1],,,,1h[8:1]/7,,3,,4h[8:1]/8h[8:1],,,,
{16}15,,1x/5x,,,4x/7x,,,2x-7[8:1]/3x-6[8:1],,,,E3f,,,,
{16}7xh[8:1]/5xb,,8,,6h[8:1]/1h[8:1],,,,7h[8:1]/5,,2,,8h[8:1]/3h[8:1],,,,
{16}7xh[8:1]/5,,1,,6xh[12:1]/5,,1,,4xh[16:1]/5,,1,,3xh[24:1]/5<3[2:1],,1,,
{16}Ch[2:1],,,,,,,,,,{32}1x,8x,7x,6x,{16}5x/3x,,3x^8[8:1]/5x^8[8:1],,
{16},,3xb^5[12:1]/D6f,,,3xb/Cf,,,8xbw4[8:1]/D2f,,,,8b,,,,
{16}2-4[8:1],,8,,6-4[8:1],,8,,2-4[8:1],,8,,6-4[8:1],,8,,
{16}1-5[8:1],,3,,6-4[8:1],,8,,1-5[8:1],,3,,6-4[8:1],,8,,
{16}3-1[8:1],,8,,6-4[8:1],,4,,3-1[8:1],,8,,6-4[8:1],,4,,
{16}1,,3,,2x-5[8:1]/8x-4[8:1],3x/7x,,,2/8<2[4:1],,,,7b/8b,,,,
{16}7-5[8:1],,1,,3v4[8:1],,1,,7-5[8:1],,1,,3v4[8:1],,1,,
{16}6-1[8:1],,8,,3v4[8:1],,5,,6-1[8:1],,8,,3v4[8:1],,5,,
{16}8-6[8:1],,2,,3v4[8:1],,5,,8-6[8:1],,2-8[8:1],,,,,,
{16},,7b-5b[12:1],,,8b-4b[12:1],,,1b-3b[12:1],,,,,,,,
{16}26,,{48}7xb,E7f,E6,{16}A5,,{48}8xb,B8f,C,{16}B4,,{48}1xb,E2f,E3,{16}A3,,2x/6x,2x-5[8:1]/6x-1[8:1],,,,
{16}2b/6bpp3[2:1],,,,4,,,,,,,,4,,,,
{16}3>6[2:1],,,,5,,,,,,,,5,,,,
{16}6pp3[2:1],,,,4,,,,,,,,4,,,,
{16}3h[8:1]/5h[8:1],,,,2h[8:1]/6h[8:1],,,,1h[8:1]/7h[8:1],,,,2/6<2b[8:1],,,,
{16}2/6b,,,E4,,,E7,,,5,,5,,,E4/E7,,
{16}1x/7x,,,E6,,,E3,,,4,,4,,,E6/E3,,
{16}2x/8x,,,E2,,,E8,,,36,,36,,,E2/E8,,
{16}6xh[8:1]/5xh[8:1],,,,2h[8:1]/4h[8:1],,,,{24}1,7,1,{16}7,,2-6[8:1]/6-2[8:1],,35,,
{16},,,,,,,,,,,,,,,,
E
