&title=Creeping(Long Version)
&artist=Merkurius
&first=0
&des=MagicBox魔盒;冰霜枫叶飘
&clock_count=4
&lv_4=wlf17
&lv_5=wlf18
&inote_4=(200){1},
{8}46,,28,7,36,,47,,35,,17,2,48,7,35,46,
15,,46,3,27,,38,,17,,28,7,1h[32:1]/5h[32:1],2h[32:1]/6h[32:1],3h[32:1]/7h[32:1],4h[32:1]/8h[32:1],
28,,17,2,48,,17,,45,,45,27,45,17,28,17,
45,,17,2,48,,37,,
{16}15,,8,1,8,5,8h[8:1],,1h[8:1],,4h[8:1],,5b,,,,
{8}
4h[8:1]/8,7,28,37,4h[8:1]/8,7,2h[8:1]/6,7,
1h[8:1]/8,7,26,17,26,17,48,26,
5h[8:1]/1,2,17,26,5h[8:1]/1,2,7h[8:1]/3,2,
8h[8:1]/1,2,37,46,35,28,15,48,
56,18,56,18,45,12,45,12,56,12,56,12,56,34,18,56,
{16}1,3,2,6,1,3,2,7,5,6,2,7,5,6,{8}1h[8:1],8h[8:1],5h[8:1],8h[8:1],1h[8:1],4h[8:1],5,37,68,
{1}17,,,,
{8}45,,1h[8:1],8h[8:1],5h[8:1],6h[8:1],3h[8:1],8,26,,2h[16:1]/6,{24}8,7,6,{8}1b/5b,,,,
{8}45,,8h[8:1],1h[8:1],4h[8:1],3h[8:1],6h[8:1],1,35,46,8h[16:1],{24}1,2,3,{8}4b/7b,,,,
{8}45,,1h[8:1],8h[8:1],5h[8:1],6h[8:1],3h[8:1],8,47,,1h[16:1]/5,{24}8,7,6,{8}2b/5b,,,,
{8}45,,8h[8:1],1h[8:1],4h[8:1],3h[8:1],6h[8:1],1,{4}2b/5b,,,,
{8}27,,8h[8:1]/1,2,7h[8:1]/3,2,6h[8:1]/1,2,
73,26,3,17,28,,18,18,
46,35,4,17,28,,18,18,
53,46,5,28,17,,27,27,
4h[8:1]/5h[8:1],,7h[8:1]/2,1,8h[8:1]/2,1,5h[8:1]/4,1,
2h[8:1]/7,8,1h[8:1]/7,8,4h[8:1]/5,8,6h[8:1]/4,1,
37,{16}8,4,6,,3,6,4,,8,6,7,,2,4,{8}2h[8:1],8h[8:1],
1h[8:1],4h[8:1],1h[8:1],8,45,45,
78,45,7h[8:1]/8,4,1h[8:1]/8,4,7h[8:1]/8,4,
78,45,78,45,78,45,3h[32:1]/6h[32:1],4h[32:1]/5h[32:1],
12,45,2h[8:1]/1,5,8h[8:1]/1,5,2h[8:1]/1,8,
12,45,12,45,12,45,1h[32:1],1h[32:1],
78,45,7h[8:1]/8,4,1h[8:1]/8,4,7h[8:1]/8,4,
78,45,78,45,78,45,2h[32:1]/8h[32:1],7h[32:1],
12,45,2h[8:1]/1,5,8h[8:1]/1,5,2h[8:1]/1,8,
1,1,4h[32:1]/6h[32:1],3h[32:1]/5h[32:1],{16}18,27,{8}36,27,27,
4h[8:1]/5,7,3h[8:1]/1,7,4h[8:1]/5,7,3h[8:1]/1,7,
45,1,34,1,45,1,34,18,
5h[8:1]/4,2,6h[8:1]/8,2,5h[8:1]/4,2,6h[8:1]/8,2,
45,8,56,8,45,8h[8:1],{16}1,2,{8}37,
4h[8:1]/5,7,3h[8:1]/1,7,4h[8:1]/5,7,3h[8:1]/1,7,
25,1,45,1,56,1,3h[32:1]/5h[32:1],8h[32:1],
6h[8:1]/5,4,5h[8:1]/2,1,4h[8:1]/8,1,5h[8:1]/3,4h[8:9],{1},{8}
1,8,17,5,26,7,14,8,
2h[8:1],1,2h[8:1],5,2h[8:1],1,2h[8:1],5,
2h[8:1],1,78,1,28,4,15,4,
28,1,7h[8:1],4,7h[8:1],8,12,13,
48,7,28,7,18,2,13,8,
7h[4:1],8,4h[4:1],3,5h[4:1],6,2h[4:1],1,
8h[4:1],7,4h[8:1],6h[8:1],3h[8:1],5h[8:1],1h[8:1],7,
4h[2:1]/8h[2:1],,,,,,36,36,
45,1,34,1,45,8,56,8,
45,1,34,1,45,8,1h[32:1]/7h[32:1],3h[32:1]/5h[32:1],
47,1,48,1,25,8,15,8,
47,1,25,8,17,{16}8,8,{8}8,17,
45,12,45,12,45,78,45,78,
45,12,45,78,45,12,3h[32:1]/8h[32:1],7h[32:1],
15,24,15,24,48,57,48,57,
15,24,48,57,13,48,57,,
34,1,45,1,56,8,45,8,
34,18,45,78,34,18,4h[32:1]/6h[32:1],3h[32:1]/5h[32:1],
78,5,18,5,12,4,18,4,
78,45,18,34,78,45,{16}2,1,{8}2,
78,6,45,3,12,8,37,6,
45,3,12,8,37,6,2h[32:1]/5h[32:1],1h[32:1]/4h[32:1],
34,1,48,7,58,1,25,3,
{1}5h[4:3]/6h[4:3],4h[4:14]/8h[4:14],,,,
{8}3,8,4,7,1,4,3,8,4,6,4,1,3,8,4,7,
1,4,3,8,4,6,4,1,3,5,4,6,1,4,3,8,
3,5,4,6,1,4,3,8,1,6,4,5,2,7,5,6,
1,4,3,8,1,5,6,4,2,7,5,6,2,7,5,6,
8h[1:1]/4,4,3,3,2,2,3,3,
4h[1:1],7,6,5,5,5,6,7,
8h[1:1],2,1,2,1,2,3,4,
4h[1:1],6,5,6,5,6,7,8,
8h[1:1],2,1,2,1,6,5,4,
3h[1:1],7,8,7,6,5,1,8,
7h[4:7],,,,,,,,
2h[4:3],,,,,,,,
1h[4:1]/8h[4:1],,,,,8h[32:1],8h[32:1],8h[32:1],
3h[4:1]/5h[4:1],,,,,1h[32:1],1h[32:1],1h[32:1],
4h[4:1]/6h[4:1],,,,,8h[32:1],8h[32:1],8h[32:1],
4h[4:1]/5h[4:1],,,1h[32:1],8h[32:1],1h[32:1],8h[32:1],2h[32:1],
5h[4:1]/6h[4:1],,,,,1h[32:1],1h[32:1],1h[32:1],
3h[4:1]/4h[4:1],,,,,8h[32:1],8h[32:1],8h[32:1],
3h[4:1]/5h[4:1],,,,,1h[32:1],1h[32:1],1h[32:1],
4h[4:1]/6h[4:1],,,1h[32:1],8h[32:1],5h[32:1],8h[32:1],1h[32:1],
45,,,,18,,,,
12,,12,{24}8,7,6,{8}5b/1b,,,,
45,,,,18,,,,
78,78,78,{24}1,2,3,{8}4b/8b,,,,
56,,,,12,,,,
18,,18,{24}2,3,4,{8}1b/5b,,,,
34,,,,78,,,,
1h[4:3]/5h[4:3],,,,,,,,
28,7,16,7,38,7,16,7,
48,3,26,3,48,3,25,3,
47,6,35,6,17,6,15,6,
37,2,16,2,48,37,26,15,
8h[8:1]/4,1,8h[8:1]/4,1,4h[8:1]/5,8,4h[8:1]/5,8,
5h[8:1]/2,8,5h[8:1]/2,8,4h[8:1]/7,1,4h[8:1]/7,1,
{16}36,,5,4,8,,4,5,1,,6,5,8,,3,4,
{8}1h[8:1],8h[8:1],5h[8:1],8h[8:1],1h[8:1],4,37,26,
15,24,15,24,15,26,48,15,
48,57,48,57,48,37,15,48,
15,24,15,24,15,26,48,15,
48,57,48,57,15,24,48,57,
15,68,15,68,15,26,48,15,
48,13,48,13,48,37,15,48,
15,68,15,68,15,26,48,15,
48,37,48,37,{24}48,7,6,{8}15,26,15,
48,17,48,17,48,13,48,57,
15,28,15,28,15,68,15,24,
48,17,48,17,48,13,48,57,
15,28,15,28,15,68,{24}15,2,3,{8}48,
17,35,17,35,17,48,17,28,
46,28,46,28,46,15,46,35,
17,35,17,35,17,48,17,35,
4h[2:1]/6h[2:1],,,,,,18,18,
27,45,27,45,27,15,48,15,
36,18,36,18,36,48,15,48,
27,45,27,45,27,15,48,15,
27,15,27,45,27,48,15,48,
27,45,27,45,27,15,48,15,
36,18,36,18,36,48,15,48,
27,45,27,45,27,15,48,15,
27,5,27,4,{24}18,27,36,{8}45,2h[8:1]/7h[8:1],,
27,15,26,37,48,37,26,15,
26,37,48,37,26,15,26,37,
48,37,26,15,26,37,48,37,
26,3,26,5,27,27,{24}18,27,36,{8}45,
36,1,36,8,37,48,15,48,
27,4,27,5,26,15,48,15,
{16}26,,7,5,6,,1,3,2,,6,5,6,,3,2,
{8}3h[8:1],5h[8:1],1h[8:1],7h[8:1],4h[8:1],8,27,27,
{1}45,{8}
6,4,5,5,6,4,5,5,
6,4,5,5,6,4,5,5,
6,4,5,5,6,4,5,5,
46,5,78,5,46,3,27,3,
46,5,78,5,46,3,27,3,
46,5,78,5,46,3,27,3,
46,5,78,5,46,3,27,5,
26,1,25,1,34,1,36,37,
38,7,38,7,48,7,28,{24}17,
2,3,{8}48,57,15,24,48,56,34,
78,12,,,,,,27,27,
45,1,34,1,45,12,56,18,
45,8,56,8,45,12,56,18,
45,1,45,8,45,12,45,78,
45,3,45,6,12,45,78,45,
18,5,78,5,18,56,12,45,
18,4,12,4,18,34,78,45,
18,7,18,2,18,7,18,2,
18,56,18,34,18,56,34,,
35,46,35,46,15,28,15,46,
28,17,28,17,46,35,46,35,
46,15,28,15,46,15,48,17,
28,17,68,17,28,17,{16}8,8,{8}8,
46,35,46,35,24,35,46,57,
46,35,24,35,46,57,46,35,
24,35,48,7,15,2,48,2h[8:5]/7h[8:5],
,,,,,,45,45,
78,45,7h[8:1]/8,4,1h[8:1]/8,4,7h[8:1]/8,4,
78,45,78,45,78,45,3h[32:1]/6h[32:1],4h[32:1]/5h[32:1],
12,45,2h[8:1]/1,5,8h[8:1]/1,5,2h[8:1]/1,5,
12,45,12,45,12,45,1h[32:1],1h[32:1],
78,45,7h[8:1]/8,4,1h[8:1]/8,4,7h[8:1]/8,4,
78,45,78,45,78,45,2h[32:1]/8h[32:1],7h[32:1],
12,45,2h[8:1]/1,5,8h[8:1]/1,5,2h[8:1]/1,5,
1,1,4h[32:1]/6h[32:1],3h[32:1]/5h[32:1],{24}18,27,36,{8}45,27,27,
4h[8:1]/5,7,3h[8:1]/1,7,4h[8:1]/5,7,3h[8:1]/1,7,
45,1,34,1,45,1,2h[32:1]/7h[32:1],1h[32:1],
5h[8:1]/4,2,6h[8:1]/8,2,5h[8:1]/4,2,6h[8:1]/8,2,
45,8,56,8,45,8h[8:1],{24}1,2,3,{8}46,
3h[8:1]/5,7,2h[8:1]/1,7,3h[8:1]/5,7,2h[8:1]/1,7,
25,1,45,1,56,1,3h[32:1]/5h[32:1],8h[32:1],
6h[8:1]/5,4,5h[8:1]/2,1,4h[8:1]/8,1,5h[8:1]/3,4h[8:5],
{1},
2bh[1:1]/6bh[1:1],
&inote_5=(200){1},
{8}26,,45,6,37,,26,,37,,7h[8:1]/4,2,3h[8:1]/6,8,47,25,
16,,45,6,37,,28,,37,,2h[8:1]/6,4h[8:1],3,3,35,3,
48,,36,5,34,,56,,34,,56,8,34,1,28,7,
56,,56,8,34,,56,,
{16}15,,3,7,6,8,7,3,2h[8:1],,4h[8:1],,7b,,,,
{8}7h[8:1]/8,4,3h[8:1]/8,4,35,8,35,8,
35,8,5/6h[8:1],1,4h[8:1]/5,1,3/8h[8:1],5,
46,,3h[8:1]/5,1,46,1,46,1,
46,1,3h[8:1]/4,8,17,7,78,{16}1,5,3,,
{8}3,3/4b,3,31,8,5b/7,7,78,1,3/4b,3,31,8,5b/7,7,{16}5,7,
1,6,2,7,1,5,3,7,1,5,2,7,1,3,2h[16:1],1h[16:1],5h[16:1],,6h[8:1],,7h[8:1],,3,,15,,48,,2bh[8:1]/6bh[8:1],,
{1},,,,
{8}5h[8:1]/6h[8:1],,8,5,46,5,1,4,34,,34,{24}1,2,3,4h[4:1]/8b,,,{8},,,
{8}3h[8:1]/4h[8:1],,1,4,35,4,8,5,6,6,5,{24}8,7,6,5h[4:1]/1b,,,{8},,,
{8}5h[8:1]/6h[8:1],,8,5,46,5,1,4,34,,34,{24}1,2,3,4h[4:1]/8b,,,{8},,,
{8}3h[8:1]/4h[8:1],,1,4,35,4,8,5,3h[2:1]/7h[2:1],,{4},,,
{8}2h[8:1]/5,1,48,7,36,,5,5,
7h[8:1]/3,8,15,2,37,,4,4,
2h[8:1]/6,1,48,7,26,,5,5,
7h[8:1]/3,8,15,2,48,,2h[8:1]/1,5,
7h[8:1]/8h[8:1],,15,2,47,8,25,1,
56,8,34,1,56,8,34,1,
35,{16}5,2,6,3,7,5,6,7,5,1,3,2,{8}5,
47,47,18,18,34,1,28,46,
{8}5h[8:1]/2,1,4h[8:1]/6,1,5h[8:1]/2,1,4h[8:1]/6,1,
5h[8:1]/2,1,4h[8:1]/6,1,5h[8:1]/2,1,46,8,
5h[8:1]/3,8,4h[8:1]/7,8,5h[8:1]/3,8,4h[8:1]/7,8,
5h[8:1]/3,8,4h[8:1]/7,8,5h[8:1]/3,8,16,2,
4h[8:1]/6,1,5h[8:1]/2,1,4h[8:1]/6,1,5h[8:1]/2,1,
4h[8:1]/6,1,5h[8:1]/2,1,4h[8:1]/6,1,38,4,
5h[8:1]/3,8,4h[8:1]/7,8,5h[8:1]/3,8,4h[8:1]/7,8,
12,12,7h[8:1]/4,8,{16}5,1,5,,{8}34,34,
4h[8:1]/3,1,2h[8:1]/6,1,4h[8:1]/3,1,2h[8:1]/6,1,
4h[8:1]/3,1,2h[8:1]/6,1,4h[8:1]/3,1,38,4,
5h[8:1]/6,8,7h[8:1]/3,8,5h[8:1]/6,8,7h[8:1]/3,8,
5h[8:1]/6,8,7h[8:1]/3,8,5h[8:1]/6,8,{16}7,1,7,,{8}
4h[8:1]/3,1,2h[8:1]/6,1,4h[8:1]/3,1,2h[8:1]/6,1,
4h[8:1]/3,1,2h[8:1]/6,1,4h[8:1]/3,1,38,4,
56,8,34,1,47,8,25,1,{1},{8}
1h[8:1]/7,4,4h[8:1]/1,2,2h[8:1]/4,7,7h[8:1]/2,1,
1h[8:1]/7,4,4h[8:1]/1,2,34,{16}4,3,{8}4,7,
8h[8:1]/2,5,5h[8:1]/8,7,7h[8:1]/5,2,2h[8:1]/7,8,
8h[8:1]/2,5,5h[8:1]/8,7,7h[8:1]/5,2,26,2,
{16}56,,8,7,2b/6,,3,4,5/8b,,7,6,1b/5,,2,3,
4/7b,,6,5,1b/4,,2,3,4/8b,,7,6,2b/5,,3,4,
{8}58,16,27,38,26,37,58,14,
36,{16}5,1,4,2,1,4,{8}8h[16:1],5,46,18,
3h[8:1]/4,8,4h[8:1]/3,1,4h[8:1]/5,8,5h[8:1]/4,1,
4h[8:1]/5,1,6h[8:1]/5,1,5h[8:1]/6,8,45,18,
3h[8:1]/4,8,4h[8:1]/3,1,4h[8:1]/5,8,5h[8:1]/4,1,
4h[8:1]/5,1,6h[8:1]/5,1,36,{16}8,1,8,,{8}1,
3h[8:1]/4,8,4h[8:1]/3,1,4h[8:1]/5,8,5h[8:1]/4,1,
4h[8:1]/5,1,6h[8:1]/5,1,5h[8:1]/6,8,45,18,
3h[8:1]/4,8,4h[8:1]/3,1,4h[8:1]/5,8,5h[8:1]/4,1,
45,12,56,12,46,12,4h[8:1]/8h[8:1],,
3h[8:1]/4,8,4h[8:1]/3,1,4h[8:1]/5,8,5h[8:1]/4,1,
4h[8:1]/5,1,6h[8:1]/5,1,5h[8:1]/6,8,45,18,
3h[8:1]/4,8,4h[8:1]/3,1,4h[8:1]/5,8,5h[8:1]/4,1,
4h[8:1]/5,1,6h[8:1]/5,1,5h[8:1]/6,8,{16}4,6,3,,{8}
3h[8:1]/4,8,4h[8:1]/3,1,4h[8:1]/5,8,5h[8:1]/4,1,
4h[8:1]/5,1,6h[8:1]/5,1,5h[8:1]/6,8,45,18,
3h[8:1]/4,8,4h[8:1]/3,1,4h[8:1]/5,8,5h[8:1]/4,1,
{1}6h[4:18],3h[4:14],,,,{8}
8,7,6,5,4,3,2,1,8,7,6,5,4,3,2,1,8,7,6,5,4,3,2,1,8,7,6,5,4,3,2,1,
8,7,6,5,4,3,2,1,8,7,6,5,4,3,2,1,8,7,6,5,4,3,2,1,8,7,6,5,4,3,2,1,
{1}2h[2:3]/7h[2:1],1h[2:3],5h[2:3],6h[2:3],8h[2:3],4h[2:3],3h[2:3],6h[2:1],
{8}4h[4:1]/8h[4:1],,,,,1,1,8,
1h[4:1]/7h[4:1],,,,,7,7,1,
8h[4:1]/2h[4:1],,,,,3,3,5,
4h[4:1]/6h[4:1],,,5,4,5,4,8,
2h[4:1]/7h[4:1],,,,,1,1,8,
1h[4:1]/7h[4:1],,,,,8,8,1,
2h[4:1]/8h[4:1],,,,,3,3,5,
4h[4:1]/6h[4:1],,,5,4,5,4,5,
27,,,,58,,,,
27,,27,{32}8x,7,6,5,{8}4/1b,,,,
27,,,,58,,,,
27,2,27,{32}1x,2,3,4,{8}5/8b,,,,
27,,,,14,,,,
27,,27,{32}8x,7,6,5,{8}1b/4,,,,
27,,,,58,,,,
27,5,4,8,1,,2h[8:1]/6,1,
8h[8:1]/4,5,2h[8:1]/1,5,46,1,46,1,
46,1,2h[8:1]/5,1,5h[8:1]/4,1,28,7,
1h[8:1]/5,4,7h[8:1]/8,4,35,8,35,8,
35,8,7h[8:1]/4,8,15,2,25,3,
46,8,35,1,46,8,35,1,
56,8,34,1,56,8,34,1,
{16}56,,7,6,1b/5,,2,3,4/7b,,6,5,2b/4,,3,4,
{8}5h[8:1]/6,8h[8:1],1h[8:1],5h[8:1],2,7,45,18,
45,12,45,12,45,12,45,12,
45,78,45,78,45,78,45,78,
45,12,45,12,45,12,45,12,
45,78,45,78,14,25,47,58,
47,12,45,12,45,12,45,12,
45,78,45,78,45,78,45,78,
45,12,45,12,45,12,45,12,
45,78,45,78,{16}1,5,{8}1,34,25,
47,12,47,12,47,36,25,78,
25,78,25,78,25,36,47,12,
47,12,47,12,47,36,25,78,
45,12,45,78,45,12,{16}5,4,{8}5,
45,78,45,78,45,78,45,78,
45,12,45,12,45,12,45,12,
45,17,45,28,45,78,45,12,
48,{16}7,3,4,2,7,3,{8}8h[8:1],5h[8:1],3,5,
7h[8:1]/8,4,3h[8:1]/4,8,35,8,35,8,
35,8,6h[8:1]/5,1,4h[8:1]/5,1,8h[8:1]/2,5,
46,2,2h[8:1]/5,1,46,1,46,1,
46,1,3h[8:1]/4,8,17,1,35,5,
7h[8:1]/8,4,3h[8:1]/8,4,35,8,35,8,
35,8,6h[8:1]/5,1,4h[8:1]/5,1,8h[8:1]/2,5,
45,2,2h[8:1]/5,1,46,1,46,1,
46,1,3h[8:1]/4,8,{16}4,6,{8}2,1h[8:1]/5h[8:1],,
7h[8:1]/8,5,2h[8:1]/8,5,7h[8:1]/8,5,2h[8:1]/8,5,
7h[8:1]/1,4,2h[8:1]/1,4,7h[8:1]/1,4,2h[8:1]/1,4,
7h[8:1]/8,5,2h[8:1]/8,5,7h[8:1]/8,5,2h[8:1]/8,5,
7h[8:1]/8,5,2h[8:1]/8,5,17,7,
78,{16}1,5,{8}2,2,24,2,12,8,
57,7,78,1,24,2,12,8,
57,7,{16}5,7,1,6,2,7,1,5,3,7,1,5,
2,7,1,3,{8}2h[8:1],1h[8:1],5h[8:1],6h[8:1],7h[8:1],3,
15,48,{1}2h[8:1]/7h[8:1],,,,{8}
3h[8:1]/4,8,4h[8:1]/3,1,4h[8:1]/5,8,5h[8:1]/4,1,
4h[8:1]/5,1,6h[8:1]/5,1,5h[8:1]/6,{16}8,4,5,,{8}1,
3h[8:1]/4,8,4h[8:1]/3,1,4h[8:1]/5,8,5h[8:1]/4,1,
4h[8:1]/5,1,6h[8:1]/5,1,27,{16}8,1,8,,{8}1,
{16}34,,1,2,3/7b,,6,5,2b/4,,3,4,58,,16,,
14,,2,3,4/7b,,6,5,2b/4,,3,4,5/7b,,6,5,
{8}43,12,18,78,56,78,18,27,
45,{16}6,3,5,1,4,2,{8}1h[16:1],5h[8:1],3,46,
3h[8:1]/4,8,4h[8:1]/3,1,4h[8:1]/5,8,5h[8:1]/4,1,
4h[8:1]/5,1,6h[8:1]/5,1,5h[8:1]/6,8,{16}4,5,{8}1,
3h[8:1]/4,8,4h[8:1]/3,1,4h[8:1]/5,8,5h[8:1]/4,1,
4h[8:1]/5,1,6h[8:1]/5,1h[8:1],8,27,27,45,
3h[8:1]/4,8,4h[8:1]/3,1,4h[8:1]/5,8,5h[8:1]/4,1,
4h[8:1]/5,1,6h[8:1]/5,1,5h[8:1]/6,8,{16}4,5,{8}1,
3h[8:1]/4,8,4h[8:1]/3,1,4h[8:1]/5,8,5h[8:1]/4,1,
45,12,56,12,46,12,4h[8:1]/8h[8:1],,
3h[8:1]/4,8,4h[8:1]/3,1,4h[8:1]/5,8,5h[8:1]/4,1,
4h[8:1]/5,1,6h[8:1]/5,1,5h[8:1]/6,8,{16}4,5,{8}1,
3h[8:1]/4,8,4h[8:1]/3,1,4h[8:1]/5,8,5h[8:1]/4,1,
4h[8:1]/5,1,6h[8:1]/5,1,5h[8:1]/6,8,{16}4,6,{8}3,
3h[8:1]/4,8,4h[8:1]/3,1,4h[8:1]/5,8,5h[8:1]/4,1,
4h[8:1]/5,1,6h[8:1]/5,1,5h[8:1]/6,8,{16}4,5,{8}1,
3h[8:1]/4,8,4h[8:1]/3,1,4h[8:1]/5,8,5h[8:1]/4,1,
46,46,18,18,34,1,28,37,
5h[8:1]/3,1,4h[8:1]/6,1,5h[8:1]/3,1,4h[8:1]/6,1,
5h[8:1]/3,1,4h[8:1]/6,1,5h[8:1]/3,1,46,8,
5h[8:1]/3,8,4h[8:1]/6,8,5h[8:1]/3,8,4h[8:1]/6,8,
5h[8:1]/3,8,4h[8:1]/6,8,5h[8:1]/3,8,16,3,
4h[8:1]/6,1,5h[8:1]/3,1,4h[8:1]/6,1,5h[8:1]/3,1,
4h[8:1]/6,1,5h[8:1]/3,1,4h[8:1]/6,1,38,4,
5h[8:1]/3,8,4h[8:1]/6,8,5h[8:1]/3,8,4h[8:1]/6,8,
12,12,6h[8:1]/4,8,{16}5,1,{8}5,34,34,
4h[8:1]/3,1,3h[8:1]/7,1,4h[8:1]/3,1,3h[8:1]/7,1,
4h[8:1]/3,1,3h[8:1]/7,1,4h[8:1]/3,1,38,4,
5h[8:1]/6,8,6h[8:1]/2,8,5h[8:1]/6,8,6h[8:1]/2,8,
5h[8:1]/6,8,6h[8:1]/2,8,5h[8:1]/6,8,{16}1,7,{8}1,
4h[8:1]/3,1,3h[8:1]/7,1,4h[8:1]/3,1,3h[8:1]/7,1,
4h[8:1]/3,1,3h[8:1]/7,1,4h[8:1]/3,1,38,4,
56,8,34,1,46,8,35,1,
{1},
{16}1bh[32:1]/8bh[32:1],2bh[32:1]/7bh[32:1],3bh[32:1]/6bh[32:1],4bh[32:1]/5bh[32:1],
