&title=ULTRA ZUNDA 2077
&artist=sobrem
&first=-0.283
&des_1=_
&des_2=_
&des_3=_
&des_4=_
&des_5=_
&lv_5=14+
&des_6=_
&des_7=_
&des=_
&inote_5=(150){4},A7/E8/E1/A1/B1/C/B5/A5/E5/E4/A3,{16}3,5,{8}5,E4/B6,{16}7,7,
4,4,{8}6,E5/E6,{16}3,7,2,8,2,8,E1h[16:3]/E2h[16:3],,,E8/C/E3,
,,,,6,4,{8}4,E6/B3,{16}2,2,5,5,{8}3,
E5/E4,{16}6,2,7,1,7,1,E1h[16:3]/E8h[16:3],,,E2/C/E7,{8}B5,B3,
{16}6,4,6,4,6,4,6,4,6,4,6,4,6,4,6,4,
7,3,7,3,8,2,8,2,7,1,7,1,{32}6,5,6,5,{8}6,
{32}1,7,1,7,{8}1,{32}3,4,3,4,{8}3,{32}8,2,8,2,{8}8,{16}3,7,2,6,
3h[2:1],,,E6fh[16:5],,,,,,,,,{8}7-2[16:1],6,
{64}7/2,3,4,5,,,,,,,,,{16}E7,,,2,B2,6,E6,3,E4,{64}7,B7,C,B3,,,,,,,,,{16}2/6,
1bx/5bx,1bx/5bx,1bx/5bx,1bx/5bx,{32},B1,,,6,B6,,,3,B3,,,8,B8,,,2,B2,C,B6,,,{16}8,
4-1[16:1],1-4b[16:1],5-8[16:1],8-5b[16:1],,,,,2q4[16:3],,,1,{4}2,
{8}6pp1[4:1],2-5[16:1],,,Ch[16:3],{16},,,,2h,B2,
6,B6,3h,B3,{64}7-1v4[16:3],E7,B6,B5,{16}E5,,,,,,,,1,,2/8-5[16:1],
{8}8/2-7b[16:1],8,{16}2b,,,6,{8}4h[8:1],{16}6,4,5,{32}3,4,{16}3,5,
{2}6-4[16:1]*-2-8[8:1],{16}7b/3b,,,6,{8}5v2[16:1]*v8[16:1],6/4,
{16}5,,,1,{8}2/8,{32}5,4,{16}6,{8}5pp1[8:1],{16}4,4,{4}5b,
{2}1x-6s2[64:15]*-4z8[64:15],{16}C,{32},,,,6,5,{12}7,7,7,
{16}7/Cf,{32},,,,3,4,{12}2,2,2,{16}2/Cf,,,5/4,{4}Cf/B8/B1/E7/E3,
{16}5/3,3/5,,6/4,{8}6/4v7[16:1]*v1[16:1],3/5,{16}4b,,,8,{8}7/1,{32}3,4,{16}3,
4qq8[8:1],5,6,7,{4}4b/8,{64},8x-3z7[64:15]*-5s1[64:15],{4},{16},,,{32},{16}C,
{32},,,,4,5,{12}4-7[16:1],{24}3,5,{12}3,{8}4,C,{12}5-2[16:1],{24}6,4,{12}6,
{8}5,C,A7/E8/B8/B7/E7/A6/E6/B5,B1/E2/A2/E3/B3/B4/E4/A3,6/4-2[16:1],6,{16}6,6,,6,
6/4-2[16:1],,,6,{8}6/4qq4pp4[2:1],6,{4}8b,8b,
8b,{8}3h/5-7[16:1],3h,{16}3h,3h,,3h,3h/5-7[16:1],,,3h,
{8}3h/5pp5qq5b[2:1],3h,{4}1b,1b,{8}1b,6/2,
{16}7bx/3-5[16:1],7bx,,7bx,7bx,7bx,,7bx,7bx/3-1[16:1],,,7bx,{8}7bx,7bx,
1b/7bx,{32}7,6,5,4,{8}2b,{32}7,6,5,4,3bv8[16:1],2,1,8,7,6,5,4,{8}3,5,
{16}6/4,,,5/3,5/3,,,7/1,{8}1/7,2/8,{4}4qq1[8:3]/6pp1[8:3],
{32},,,,,,,,,,,,,,,,6,5,{16}3h[16:5]/4h[32:3],,,{4}5h[8:1],
{32}4,6,,,{16}4,5,{12}3,4,2,{96},,,,,,{32}7,8xh[32:1],,,{16}5xh,{32}2,4xh[32:1],,,{8}1,
{64}3,7x,,,,,,,5,1x,,,,,,,,,,,{16}6h[16:5]/5h[32:3],,,{4}4h[8:1],{32}5,3,,,,,4h[32:5],6h[8:1],
,,,,,,,,{16}4,5,3,4,2,8,1,7,{64}8,6x,,,,,,,4,1x,,,,,,,{4}E6/Ch[8:13],
E7,B4,A8h[8:1],
A4h[8:1],A6h[8:1],A2h[8:1],{16}1,4,8,3,
7,2,6,1,5,2,6,3,7,4,8,5,{4}1h[1:2],
{16},,,,,,,,,4b,,4b,{8}4b,4b,
{16}4b,,,4b,,,,,4b,,,4b,,,,,{8}4b/1-5[16:1],
4b,{16}Cf,,,3,{8}7/4-2[16:1],5,{16}4pp8[16:3],,,B2h[16:3]/E3h[16:3]/B3h[16:3],
,,,,1pp4[16:3],,,B8h[16:3]/E8h[16:3]/B7h[16:3],,,,,{8}5,8/2,
{16}7/3,7/3,,6,{8}2/5-7[16:1],4,{16}5-3v1[16:3],,,B7h[16:3]/E7h[16:3]/B6h[16:3],,,,,8v7-5[16:3],
,,B1h[16:3]/E2h[16:3]/B2h[16:3],,,,,{8}4,3/7,{16},3/4,,6/5,
{8}7/4-8[16:1],E6,{16}4,{32},,,,2,3,4,5,6,7,8,1,2,3,{16}6b/4b,{32},,,,6,5,
{16}7,3,{32},1,,,{16}2,2,6,6,{32}4,5,6,7,8,1,2,3,4,5,6,7,8,1,2,3,
4,5,6,7,8,1,2,3,4,5,6,7,8,1,2,3,4/B8f,5,6,7,8,1,2,3,4,5,6,7,8,1,2,3,
{8}4h[4:1],7h[8:1],{32},6h,5h,4h,{24}3h,2h,1h,{16}8x-6-1-5-2-4[2:1],7xh,{24}6xh,,5xh,,,,,,,,,,,,,{8}E7f,
E6,E5,{32}E4,,,E3,,,,E2,,,{16}E1,
{8}E8f,{24}4,3,2,{12}1h[2:1]/E6,E5/B4,E7/B7,E5/B4,E7/B7,E5/B4,E7/B7,E5/B4,E7/B7,
{4}E5/B4f/1-7-3-5[12:5]*s5[12:5],,,7bxw3b[4:5],
{8},,,,,,,,,,,,6-1[16:1],
2>5[16:1],6,2-6[16:1],
7-4[16:1],2,7,1,3>8[8:1],8<5[8:1],{4}5p2[4:1],
{8}E8h[4:1],,,1-5[16:1],8,7-3[16:1],8,7,
2-7[12:1],8,2-6[12:1],8,2-5[12:1],7,2,6,
3-8[16:1],7<4[16:1],3,7-3[16:1],2-5[16:1],7,2,8,
6>3[8:1],3>8[8:1],{4}8qq4[4:1],{8}E3h[4:1],,,5,
6,3,1,7,{4}5,6h[2:1]/2h[2:1],
{32},,,,,,,,,,,,,,,,6/A3,D4,A4,E5,B5,C,B2,E3,6/A3,D4,A4,E5,B5,C,B2,E3,
6/A3,D4,A4,E5,B5,C,6/B2,E3,A3,D4,A4,E5,6/B5,C,B2,E3,6/E4,E5,E6,E7,E8,E1,E2,E3,7x/D4,D5,D6,D7,D8,D1,D2,D3,
{8}8x/D4,7x,{32}2x/A5,D6,A6,E7,B7,C,B4,E5,3/A5,D6,A6,E7,B7,C,B4,E5,3/A5,D6,A6,E7,B7,C,3/B4,E5,
A5,D6,A6,E7,3/B7,C,B4,E5,3/A5,A6,A7,A8,A1,A2,A3,A4,2x/E5,E6,E7,E8,E1,E2,E3,E4,{4}1x/E5,
{24}6,4,6,4,6,4,5x,3,5,3,5,3,6x,2,6,2,{48},6x,2,,{24}7,1,7,1x,7,1,
6x,2,6,3,7,3,6x,4,6,3,5,3,{2}6xs2[8:1],
{16}7/4,,,5,{8}4,{16}6,2,{8}7,1,{16}8b-4[16:7],2b,8b,2b,
{8}8bh[8:3],,,Cf,3/5-7[16:1],3,{16}3,3,,3,
3/8-4[16:1],,,3,{8}3,3,{32}5b,6,7,8,1,2,3,4,1b,8,7,6,5,4,3,2,
{4}5b/1b,{8}6h/4-2[16:1],6h,{16}6h,6h,,6h,6h/1-5[16:1],,,6h,
{8}6h,6h,{32}4b,3,2,1,8,7,6,5,8b,1,2,3,4,5,6,7,{8}4b/8b,3b/7b,
{16}2bx/6-4[16:1],2bx,,2bx,2bx,2bx,,2bx,2bx/6-8[16:1],,,2bx,{8}2bx,2bx,
8b/2bx,{32}2,3,4,5,{8}7b,{32}2,3,4,5,6bx-2[16:1],5x,4,3,2x,1x,8,7,{8}6bx,4,
{16}3/8,,,4/7,4/7,,,2/8,7/2,6/2,5/2,2/4,{4}5x>4p1b[1.2##1.8],
{1},{4},{16},7x-2b[16:1],
E
