&title=ごめんね ごめんね
&artist=きくお
&first=-1.46
&des=D
&lv_1=4
&inote_1=(110)
{4},,,,
{64}1-5[8.5227##3.4091],
8/2-6[12.8523##2.4545],3/7-3[16.2273##4.3636],6/4-8[21.9205##3.8182],{32}5<1[2.3864##2.1818]*>1[2.3864##2.1818],{1},,,,,,,,,,,{4},,{32},,,,,,,{16},{1}1w5[2.7273##3.8182],,,{16},,{4},,
{8},
(110)4-1[1:1],,
4,,4,,4,,4,,4,,4,,4^7[1:1],,4,,4,,4,,4,,4,,4,,4,,4,,4,,4^1[1:1],,4,,4,,4,,4,,4,,4,,
4,4,3,3,2,2,1,1,8,8,7,7,6,6,5,5,{16}4,4,6,6,5,5,3,3,4,4,7,7,5,5,2,2,7,7,5,5,3-7[16:1],3,1,1,,,,,{16}2qq5[4:1]/6,,,,
2b,,,,8^3[8:1],,7,1,8z4[32:5],,6,,48,,2,,1-5[8:1]/5,,7-4[8:1],7,1,,7,,1,4,2,3,1qq3[4:1]/4,,,,
1b,,,,5-8[8:1],,6,4,5qq1[4:1],,3,,58,,6,,7-4[8:1],,2qq1[8:1],2,7,,2,,4,2,1,3,4/7pp4[4:1],,,,
7b,,,,1^6[8:1],,2,8,1s5[32:5],,3,,51,,7,,8-4[8:1]/4,,2-7[8:1],,8,,2,,{12}5qq4[8:1],6,7,{16}8pp6[4:1]/5,,,,
8b,,,,4-6[8:1],,4,,3v6[8:1],,3,,7q3[8:1],,7,,2^7[8:1],,2,,4^7[8:1],,4,,1,,,8,2qq5[4:1]/6,,,,
2b,,,,8^3[8:1],,7,1,8s4[32:5],,6,,48,,2,,1q7[8:1]/5,,7v4[8:1],7,1,,8,,8,5,7,6,5qq6[4:1]/8,,,,
1b,,,,2-5[8:1],,3,1,2qq6[4:1],,8,,5,,3,,4-8[8:1],4,7,7,4,,6,6,1,4,3,7,{12}1/6qq1[4:1],2,2,
{16}6b,,,,4-8[8:1],,3,5,4^7[8:1],,6,,4,,3,,5qq4[8:1]/1,,,,8,,7,7,,4,2,3,4pp3[4:1]/1,,,,
8b,,,,7-4[8:1],,6,8,7pp3[4:1],,1,,4,,6,,5,,5,5,3,,3,3,7,,7,7,18,18,18,18,
{4}1qq4[2:1]/8,5,,5,4h[2:1],3h[2:1],{8},4,4^7[16:3],,
{4}2qq5[2:1],6,,6,5h[2:1],4h[2:1],{8},6,6,,
{16}5,,,4,5,,3,,5,2,,,5,3,3,3,4,,,3,4,,2,,4,1,,,4,2,2,2,
{8}3h[8:1],,3h[8:1]/7,,2h[8:1],,2h[8:1]/5,,{24}1h[8:1]/5,6,7,8,1,2,3/1h[8:1],4,5,6,7,8,
{8}1h[4:1]/4^1[8:1],,
4pp5[16:3],,4>8[8:1],,4pp4[16:3],5,4>6[32:7],,1s5[32:5],,1^6[8:1],,4-8[8:1],3-1[8:1],4,3,7qq6[16:3],,8^3[8:1],1,8qq7[16:3],,1^4[8:1],2,1-5[8:1],,2qq1[16:3],,2,6,4^7[8:1],3,4^1[8:1],,
4pp4[16:3],,4>6[32:7],1,1qq3[4:1],,1-5[8:1],,1-7[8:1],2-6[8:1],1,2,7qq6[16:3],6,8-4[8:1],1,8qq8[16:3],,1-4[8:1],2,1^6[8:1],8,12,,
{16}6-8[8:1],,3,,6,,4-2[8:1],4,1-5[8:1],,4,,1,,8-2[8:1],8,7-3[8:1],,8-4[8:1],,7-5[8:1],,8,,7,,1,,7pp4[4:1]/3,,,,
7b,,,,1^6[8:1],,2,8,1V35[32:5],,3,,51,,7,,8p4[8:1]/4,,2-6[8:1],2,8,,2,,8,5,7,6,8pp6[4:1]/5,,,,
8b,,,,4-1[8:1],,3,5,4pp8[4:1],,6,,41,,3,,2v5[8:1],,7pp8[8:1],7,2,,7,,5,7,8,6,5/2qq5[4:1],,,,
2b,,,,8^3[8:1],,7,1,8z4[32:5],,6,,48,,2,,1-5[8:1]/5,,7-2[8:1],,1,,7,,{12}4pp5[8:1],3,2,{16}1qq3[4:1]/4,,,,
1b,,,,5-3[8:1],,5,,6v3[8:1],,6,,2p6[8:1],,2,,7^2[8:1],,7,,5^2[8:1],,5,,8,,,1,7pp4[4:1]/3,,,,
7b,,,,1^6[8:1],,2,8,1p4[32:5],,3,,51,,7,,8v2[8:1]/4,,2p5[8:1],2,8,,1,,1,4,2,3,4pp3[4:1]/1,,,,
8b,,,,7-4[8:1],,6,8,7pp3[4:1],,1,,4,,6,,5-1[8:1],5,2,2,5,,3,3,8,5,6,2,{12}8/3pp8[4:1],7,7,
{16}3b,,,,5p7[8:1],,6,4,5^2[8:1],,3,,5,,6,,4pp5[8:1]/8,,,,1,,2,2,,5,7,6,5qq6[4:1]/8,,,,
1b,,,,2-5[8:1],,3,1,2qq6[4:1],,8,,5,,3,,4,,3,3,6,,5,5,2,,7,7,8/1-6[8:1],,,,
{4}8pp5[2:1]/1,4,,4,5h[2:1],6h[2:1],{8},5,5^2[16:3],,
{4}7pp4[2:1],3,,3,4h[2:1],5h[2:1],{8},3,3,,
{16}4,,,5,4,,6,,4,7,,,4,6,6,6,5,,,6,5,,7,,5,8,,,5,7,7,7,
{8}6h[8:1],,6h[8:1]/2,,7h[8:1],,7h[8:1]/4,,{24}8h[8:1]/4,3,2,1,8,7,6/8h[8:1],5,4,3,2,1,
{8}8h[4:1]/5^8[8:1],,
5qq4[16:3],,5<1[8:1],,5qq5[16:3],4,5<3[32:7],,8q5[32:5],,8V24[8:1],,5-1[8:1],6-8[8:1],5,6,2pp3[16:3],,1^6[8:1],8,1pp2[16:3],,8^5[8:1],7,8-4[8:1],,7pp8[16:3],,7,3,5-1[8:1],6,5^8[8:1],,
5qq5[16:3],,5<3[32:7],8,8pp6[4:1],,8-4[8:1],,8-2[8:1],7-3[8:1],8,7,2pp3[16:3],3,1-5[8:1],8,1pp1[16:3],,8-5[8:1],7,8^3[8:1],1,87,,
{16}3-1[8:1],,6,,3,,5-7[8:1],5,8-4[8:1],,5,,8,,1-7[8:1],1,2-6[8:1],,1-5[8:1],,2-4[8:1],,1,,2,,8,,2/6pp3[2:1],,,,
{8}4b,,4-1[2:1],,,,,,5h[2:1],,2h[8:3],,,,5pp2[2:1],,
{8}3,,3^6[2:1],,,,,,8h[2:1],,5h[8:3],,,,7pp6[2:1],,,,7pp5[2:1],,,,7pp4[8:3],,3pp8[8:3],,,,7<1[2:1],,,,6h[1:1],,,,7,,5,,
{16}3,,,4,3,,5,,3,6,,6,3,5,,5,2,,,1,2,,8,,2,7,,7,4,6,,6,
{8}1h[8:1]/5,5,6h[8:1]/2,2,3h[8:1]/7,7,8h[8:1]/4,4,
{48}5,6,7,8,1,2,
3,4,5,6,7,8,
4-8[16:1],3,2,1,8,7,
6,5,4,3,2,1,
{4}8w4[8:1],8>7[16:3],
{16}8-4[8:1],,,,8>7[16:3],,7,,8-4[8:1],,,,8pp6[4:1],,6,,8,,4-1[8:1],,3,,4pp6[8:1],,6pp8[8:1],,4,,2pp4[8:1],,3,,2^7[8:1],,1,,4^7[8:1],,3,,2qq5[4:1],,1,,6,,,,
8^5[8:1],,4,3,2,,3-7[8:1],2,1-5[8:1],,3,,1>8[16:3],,7,,
1-5[8:1],,,,1>7[16:3],,8,,1-6[8:1],,,,1p4[8:1],,8,,1,,3^8[8:1],,2,,3pp5[8:1],,5pp7[8:1],,3,,2v3[8:1],,1,,2<5[32:5],,1,,2^4[8:1],,3,,6pp3[4:1],,7,,2,,,,
1-4[8:1],,7-3[8:1],,1-5[8:1],,7,8,1-4[8:1],,6-3[8:1],,1<2[16:3],,6,,
{16}1-5[8:1],,,,1<2[16:3],,2,,1-5[8:1],,,,1qq3[4:1],,3,,1,,5-8[8:1],,6,,5qq3[8:1],,3qq1[8:1],,5,,7qq5[8:1],,6,,7^2[8:1],,8,,5^2[8:1],,6,,7pp4[4:1],,8,,3,,,,
1^4[8:1],,5,6,7,,6-2[8:1],7,8-4[8:1],,6,,8<1[16:3],,2,,
8-4[8:1],,,,8<2[16:3],,1,,8-3[8:1],,,,8q5[8:1],,1,,8,,6^3[8:1],7,8,,6pp8[8:1],,8pp2[8:1],,6,,4v3[8:1],,5,,4q8[8:1],,5,,4,,3,,2<6[8:1],,6<2[8:1],,2,,,,
5-8[8:1],,3-7[8:1],,5-1[8:1],,3,6,5-8[8:1],,2-6[8:1],,5,,2-8[8:1],7,7-3[8:1],,
2-5[8:1],,7,,2,,6<4[48:9],,47,,6b,,,,
{48}1^6[8:1],2,3,{16}4,,,1,,2,3h[8:1],,8,5,6h[8:1],,2,4^7[8:1],,15,,{24}4,1,2,{16}3h[8:1],,8,8,{24}4,7,5,{16}6,2h[16:3],5h[8:1],,,,
{48}1^6[8:1],2,3,{16}4,,,1,,3,2h[8:1],,5,8,7h[8:1],,2,6^1[8:1],,1,7,3,3,4h[8:1],,8,8,{24}3,7,5,{16}6,2h[16:3],4h[8:1],,,,
1-4[32:3]/5,,,,1,,6,6h[8:1],,1,4,3h[8:1],,7,5^2[8:1],,8/4z8[32:5],,,,4,,2,2,{24}7,3,5,{16}1,6h[16:3],4h[8:1],,,,,
3,4,5h[8:1],3,4,5,6h[8:1],,4,3,2,5,4,3,6,5-8[1:2],
