&title=季曲~Seasons of Asia~
&artist=采風樂坊
&first=0
&des=Dororo
&lv_5=13
&inote_5=(150)
{16},,,,,,,,,,,,,,,,
3h[8:7],,,,,,,,4,,,,5,,5h[8:7],,
,,,,2,,,,3,,,,4,,,,
6h[8:7],,,,,,,,5,,,,4>5[4:7],,4h[8:15],,
,,,,,,,,,,,,,,,,
,,,,,,,,,,,,,,,,
3pp3[4:1],,3,,1,,1,,8,,7^2[8:1],,,,3pp3[4:1],,
,,3,,1,,1,,8,,7^2[8:1],,,,3qq4[4:1],,
,,3,,6,,6,,5h[8:1]/7h[8:1],,,,2h[8:1]/4h[8:1],,,,
18,,3,4,3,,25,,1-5[8:1],,1,,8,,7,,
6qq6[4:1],,6,,8,,8,,1,,2^7[8:1],,,,6qq6[4:1],,
,,6,,8,,8,,1,,2^7[8:1],,,,6pp5[4:1],,
,,6,,3,,3,,4h[8:1]/2h[8:1],,,,7h[8:1]/5h[8:1],,,,
18,,6,5,6,,47,,3h[8:1],,4h[8:1],,5h[8:1],,6h[8:1],,
3^6[4:1],,,,6p1[4:1],,,,1^6[4:1],,,,6q3[4:1],,,,
3^6[4:1],,,,6,,,,8,,8-4[8:1],,,,3qq6[8:3],,
,,5,,5,,,,7,,7-3[8:1],,,,4q5[8:5]*>5[8:5],,
,,,,,,,,,,,,,,,,
6^3[4:1],,,,3q8[4:1],,,,8^3[4:1],,,,3p6[4:1],,,,
6^3[4:1],,,,3,,,,1,,1-5[8:1],,,,6<3[4:1],,
,,4,,4,,,,5,,4z8[8:3]/6s2[8:3],,,,,,
,,,,,,,,27,,,,18,,1,8,
2-5[8:1],,,,1,,,,8,,8-4[8:1],,7,,1,,
,,2,,2-7[8:1],,,,6,,6h[4:1],,5,,4^1[8:1],,
,,7,,7^4[8:1],,,,2,,2,,3,,24,,
,,6,,5-8[8:1]/7,,,,53,,,,27,,8,1,
7-4[8:1],,,,8,,,,1,,1-5[8:1],,2,,8,,
,,7,,7-2[8:1],,,,3,,3h[4:1],,4,,5^8[8:1],,
,,2,,2^5[8:1],,,,7,,7,,6,,45,,
,,6,,57,,3,,24,,8,,18,,3,4,
3^6[4:1],,3h[8:3],,,,,,,,,,4,,5,,
6^3[4:1],,6h[8:3],,,,,,,,,,5,,4,,
3^6[4:1],,3h[8:3],,,,,,,,,,4,,5,,
6h[8:3],,3h[4:1],,,,,,36,,,,45,,4,5,
3>6[4:1],,3h[8:3],,,,,,,,,,4,,5,,
6<3[4:1],,6h[8:3],,,,,,,,,,5,,4,,
3-8[8:1],,3,,7-4[8:1],,7,,2-5[8:1],,2,,6-1[8:1],,6,,
3,,2,,7,,6,,4,5,4,5,3,6,3,6,
2-6[8:1],,1,,8v5[8:1]/2,,8v3[8:1],,,,,,,,2-6[8:1],,
,,26,,8v5[8:1],,8v3[8:1],,,,,,,,2pp6[4:1],,
,,26,,8-5[8:1],,7,,8-3[8:1],,1,,8,,7,,
26,,3,4,3,,17,,6-8[8:1],,3-5[8:1],,6,,3,,
7-3[8:1],,8,,1^4[8:1]/7,,1^6[8:1],,,,,,,,7-3[8:1],,
,,37,,1^4[8:1],,1^6[8:1],,,,,,,,7qq3[4:1],,
,,37,,1-4[8:1],,2,,1-6[8:1],,8,,1,,2,,
73,,6,5,6,,82,,2,4,3,5,4,6,5,7,
4-6[8:1]/8v2[8:1],,,,48,,,,15,,1<3[4:1]/5,,8,,17,,
,,8,,8-4[8:1],,,,82,,2h[4:1],,,,4,,
5-3[8:1]/1v7[8:1],,,,51,,,,84,,8z4[16:3]/4,,,,82,,
2h[4:1],,,,6h[4:1],,,,4h[4:1],,,,5,4,5,4,
6-1[8:1],,7,,8,,2-5[8:1],,3,,4,,6-2[8:1],,7,,
8,,1,,3-6[8:1]*-8[8:1],,4,,3,,,,2/7-4[8:1],,18,,
2q5[4:1]/7,,,,2,,,,7,,37,,,,1,,
1bv4[8:1]/5bv8[8:1],,,,1b/5b,,,,51,,48,,37,,26,,
5pp4[1:2]/1pp8[1:2],,,,,,,,,,,,,,,,
,,,,,,,,,,,,,,,,
,,,,,,,,,,,,5h[1:1],,,,
4h[4:3],,,,,,,,,,,,,,,,
3-6[4:7],,,,,,,,,,,,,,,,
,,,,,,,,5,,,,4,,,,
3q6[2:3],,,,,,,,,,,,7,,,,
7h[4:3],,,,,,,,,,,,,,,,
65,,6,,4,,4,,5,,4,,65,,7,,
65,,6,,4,,4,,65,,6,,2,,3,,
64,,6,,2,,2,,5,,3,,64,,7,,
64,,6,,2,,2,,64,,6,,1,,2,,
34,,3,,5,,5,,4,,5,,34,,2,,
34,,3,,5,,5,,34,,3,,7,,6,,
4,5,3,6,4,5,2,7,3,6,2,7,3qq5[4:3],6pp4[16:11],1,8,
,,,,,,,,,,,,,,,,
3^6[8:1],,6^3[8:1],,8,,8-2[8:1]*-4[8:1],,7,,8,,,,15,,
3^6[8:1],,6^3[8:1],,1,,1-5[8:1]*-6[8:1],,8,,1,,,,47,,
3qq4[4:1],,3,,7-5[8:1],,6,,7-3[8:1],,8,,7,,2,,
2-5[8:1]/5,,3,4,2,,6,,7-5[8:1],,4-8[8:1],,7,,4,,
6-3[8:1],,3-6[8:1],,1,,1v7[8:1]*-5[8:1],,2,,1,,,,48,,
6-3[8:1],,3-6[8:1],,8,,8-4[8:1]*v3[8:1],,1,,8,,,,52,,
6pp5[4:1],,6,,2-4[8:1],,3,,2-6[8:1],,1,,2,,7,,
7-4[8:1]/4,,6,5,7,,3,,3,1,2,8,1,7,8,6,
5-3[8:1]/2^7[8:1],,,,52,,,,84,,8>6[4:1]/4,,1,,82,,
,,1,,1-5[8:1],,,,16,,6h[4:1],,,,5,,
4-6[8:1]/7^2[8:1],,,,47,,,,15,,1s5[16:3]/5,,,,17,,
7h[4:1],,,,3h[4:1],,,,5h[4:1],,,,4,5,4,5,
3-8[8:1],,2,,1,,7-4[8:1],,6,,5,,3-7[8:1],,2,,
1,,8,,6w2[8:1],,5,,6,,,,4/8-4[8:1],,26,,
4/8V64[8:1]*V24[8:1],,,,8,,,,35,,78,,,,46,,
2b>1[4:1]/1b-6[8:1],,,,1bq4[4:1]/2b,,,,5h[4:1],,,,,,5,,
45,,3,,3,,3,,45,,6,,6,,45,,
,,34,,,,56,,7,,18,,2,,2,7,
2h[4:1],,1,,4h[4:1],,1,,3h[8:5],,1,,8,,7h[4:1],,
,,,,37,,26,,1^4[8:1]/5^8[8:1],,84,,,,,,
57,,1,,8,,1,,24,,8,,1,,2-5[8:1]/7-4[8:1],,
,,27,,,,36,,27,,18,,7,,7,2,
7h[4:1],,5,,2h[4:1],,4,,8h[8:7],,6,,4,,2-4[8:1],,
,,2-5[8:1],,,,2-6[8:1],,8,,8,,8>7[4:1],,,,
8b,,,,,,,,,,,,,,,,
,,,,,,,,,,,,,,,,
,,,,,,,,,,,,,,,,
,,,,,,,,,,,,,,,,
