&title=Flowering
&artist=달의하루
&first=0.03
&des=Dororo
&lv_5=13+
&inote_5=(148)
{1},
{16}3h[8:3],,,,,,4h[8:3],,,,,,2^5[8:1],,,,
6h[8:3],,,,,,5h[8:3],,,,,,7^2[8:1],,,,
3h[8:3],,,,,,4h[8:3],,,,,,2^5[8:1],,,,
6h[8:3],,,,,,3,,4-1[8:1],5,4,5,4b,,,,
7-3[8:1],,7,,8,,1,,2,4,,4,3,,2,5,
2h[4:1],,8,,6h[4:1],,8,,1,7,,6,2,,3,5,
4-8[8:1],,4,,5,,6,,7,1,,1,8,,7,5,
7,,,65,,,24,,,78,,,1b/5b,,3,4,
2-6[8:1],,2,,1,,8,,7,5,,5,6,,7,4,
7h[4:1],,1,,3h[4:1],,1,,8,2,,3,7,,6,4,
5-1[8:1],,5,,4,,3,,2,8,,8,1,,3,4,
3h[4:1],,4,,5,,6,3,6-3[8:1],,4,,3,,2,,
1<2[2:3],,1,,,,,,,,,,,,,,
,,,,,,,,,,,,,,,,
6pp1[2:3],4qq1[16:23],5,,,,,,,,,,,,,,
,,,,,,,,,,,,,,,,
8>7[2:3],,8,,,,,,,,,,,,,,
,,,,,,,,,,,,,,,,
1h[256:1],,,,,,,,,,,3,4b,,4b,,
2h[16:3],,,6h[16:3],,,8,,8,7,1,6,2,5,3,,
4^6[8:1],,,,,,,,5^3[8:1],,,,,,,,
4^6[8:1],,,,,,,,5^3[8:1],,,,7^1[8:1],,,,
4^7[8:1],,,,,,,,5^2[8:1],,,,,,,,
4^7[8:1],,,,,,,,5^2[8:1],,,,8^5[8:1],,,,
3>7[4:1],,,,7,,,,4,,,5,,,6,,
1-5[8:1],1,,,8,,,,6,,,5,,,4,4,
6<2[4:1],,,,2,,,,5,,,4,,,3,3,
8bw4[8:1],,,,,,,,26,,3,5,4,,4,,
6pp3[8:3],,6,,4,,3>5[8:3],,2h[2:1],,,,,,,,
,,,,3p5[4:1],,4,,5q3[4:1],,,,,,,,
6qq1[8:3],,6,,8,,1>7[8:3],,2h[2:1],,,,,,,,
,,2-6[8:1],2,,,6,,8-4[8:1],,1,1,,2,2,,
3qq6[8:3],,3,,5,,6<4[8:3],,7h[2:1],,,,,,,,
,,,,6q4[4:1],,5,,4p6[4:1],,,,,,,,
2^7[8:1],,7pp2[8:3],,,,,,6,,,5,,,4,4,
3b,,,,,,,,1-4[8:1]/8-5[8:1],,,,,,,,
3^6[8:1],,2,,1^3[8:1],,1^6[8:1],,,,,,4-8[8:1],,3,,
4/7>3[8:1],,6,,5pp7[8:1],,5qq3[8:1],,,,,,6^1[8:1],,7,,
56,,4,4,8-4[8:1],,1,,78,,6,6,3^6[8:1],,4,,
23,,1,1,,,5,3,7-3[8:1],5,,,7b/8b,,,,
6^3[8:1],,7,,8^6[8:1],,8^3[8:1],,,,,,5-1[8:1],,6,,
5/2p6[8:1],,3,,4^1[8:1],,4^7[8:1],,,,,,2-5[8:1],,1,,
2b/8,,7,7,4-8[8:1],,3,,4b/2,,1,1,7-2[8:1],,6,,
7b/5,,4,4,,,35,,{32}2,1,8,7,6,5,4,3,{16}2b/6b,,,,
3-5[8:1],,3,,2-6[8:1],,2,,1-3[8:1],,1,,8-4[8:1],,8,,
7-1[8:1],,7,,6-2[8:1],,6,,5-7[8:1],,5,,4,,4,,
3,8,5,8,3,4,2,4,3,7,5,7,3,4,1,4,
2h[8:1],,4,3h[8:1],,5,4h[8:1],,6,5h[8:1],,7,{32}4b,3,2,1,8,7,6,5,
{16}4/8-4[8:1],,7,,2-6[8:1],,3,,5,,,7,,,3,4,
1-5[8:1],,2,,7-3[8:1],,6,,4b,,,5b,,,3/6b,,
3>6[2:1]/6,,,,,,5,,5,,,4,,,3,,
1h[8:1]/2h[8:1],,,3h[8:1]/8h[8:1],,,47,,8h[8:1]/7h[8:1],,,1h[8:1]/6h[8:1],,,25,,
3,4,3,5,1,,4,5,3,4,3,5,1,,,,
6,5,6,4,8,,5,4,6,5,6,4,8,,,,
1/2h[16:3],,,3h[16:3],,,4,,4/5h[16:3],,,6h[16:3],,,7,,
7/8h[16:3],,,1h[16:3],,,2,,2b^7[8:1]/3bp6[8:1],,,,,,,,
15,15,,26,,,37,,,48,,,{32}1/5b,6,7,8,1,2,3,4,
{16}8h[8:1],,5,6h[8:1],,1,8h[8:1],,4-8[8:1],6h[8:1],,2,4,,1,,
3h[8:1],,8,2h[8:1],,6,4h[8:1],,8^3[8:1],3h[8:1],,5,8,,4,,
6h[8:1],,2,5h[8:1],,3,8h[8:1],,1,5,,3,7,4,6,2,
8-4[16:1],,,3-1[16:1]/8b,,,5-7[16:1]/3b,,,5b/8,,,2,2,8,8,
1h[8:1],,4,3h[8:1],,8,1h[8:1],,5-1[8:1],3h[8:1],,7,5,,8,,
6h[8:1],,1,7h[8:1],,3,5h[8:1],,1^6[8:1],6h[8:1],,4,1,,5,,
3h[8:1],,7,4h[8:1],,6,1h[8:1],,8,4,,6,2,5,3,7,
1h[8:1],,,8h[8:1]/2h[8:1],,,73,,7-4[8:1]/3-5[8:1],,28,,7b/3b,,,,
8/3-5[8:1],,2,,8-4[8:1]/3,,7,,8-6[8:1]/3,,2,2,8-4[8:1],1,1,,
8/2-5[8:1],,3,,8-4[8:1]/2,,7,,8-6[8:1]/3,,2,2,8-4[8:1],1,1,,
8/3v5[8:1],,2,,8-2[8:1]/3,,7,,8-6[8:1]/3,,4,4,8-2[8:1],3,3,,
8-4[8:1]/4,,3,3,8,,2,,{32}15,8,7,6,5,4,3,2,{16}1b/8b,,,,
2-5[8:1]/6,,7,7,2-6[8:1],,1,,2-5[8:1],,8,8,2-6[8:1],1,1,,
2-5[8:1]/8,,7-1[8:1],7,2-6[8:1],,7,,2-5[8:1],,8,8,2,1,1,,
4/8b,,3/7b,,2/6b,,1/5b,,4b^7[8:1]/8b,,,,2,,2b,,
,,6/1b,,7/2b,,8/3b,,{32}1/4bw8[8:1],5,6,7,8,1,2,3,{16}4b,,,,
,,,,,,,,,,,,,,,,
E
