&title=少女が見た日本の原風景
&artist=上海アリス幻樂団
&first=0
&des=Acadm
&clock_count=4
&lv_2=3
&lv_3=7
&lv_4=11+
&lv_5=13+
&inote_2=(150){1},
,
{2}3,3,
{1}3,
{2}6,6,
{1}6,
{2}4,4,
{1}4,
{2}5,5,
{1}5,
{1}3h[1:1]/4h[1:1],
{1},
{1}6h[1:1]/5h[1:1],
{1},
{1}2h[1:1]/1h[1:1],
{1},
{1}7h[1:1]/8h[1:1],
{1},
{2}3,3,
{1}4,
{2}6,6,
{1}5,
{2}2,2,
{1}1,
{2}7,7,
{1}8,
{2}3,3,
{2}4,4,
{2}5,5,
{1}6,
{2}6,6,
{2}5,5,
{1}3h[1:1]/4h[1:1],
{1},
{1}34,
{1}23,
{1}12,
{1}18,
{1}65,
{1}76,
{1}87,
{1}81,
{2}2,2,
{1}2,
{2}7,7,
{1}7,
{2}3,3,
{1}3,
{2}6,6,
{1}65,
{2}2,2,
{1}2,
{2}7,7,
{1}7,
{2}3,3,
{1}3,
{2}6,6,
{1}6,
{1}3h[1:2],
{1},
{1},
{1},
{1}6h[1:2],
{1},
{1},
{1},
{1}2h[1:2],
{1},
{1},
{1},
{1}7h[1:2],
{1},
{1},
{1},
{1}34,
{1}23,
{1}12,
{1}18,
{1}65,
{1}76,
{1}87,
{1}81,
(300){1}34,
(150)
{1}4h[1:3]/5h[1:3],
{1},
{1},
{1},
{1}3h[1:3]/6h[1:3],
{1},
{1},
{1},
{1}3,
{1}3,
{1}6,
{1}6,
{1}2,
{1}2,
{1}7,
{1}7,
{2}2,2,
{1}2,
{2}7,7,
{1}7,
{2}3,3,
{1}3,
{2}6,6,
{1}6,
{2}34,34,
{1}34,
{2}56,56,
{1}56,
{1}2q5[4:11]*q5[4:11]/4,
{1},
{1},
{1},
{1}8b,
&inote_3=(150){1},
,
{1}4h[1:1]/5h[1:1],
{1},
{1}4h[1:1]/5h[1:1],
{1},
{4}4,4,4,4,
{4}5,5,5,5,
{4}3,3,3,3,
{1}36,
{1}1h[1:1],
{1}2h[1:1],
{1}3h[1:1],
{1},
{1}8h[1:1],
{1}7h[1:1],
{1}6h[1:1],
{1},
{4}4,4,4,,
{4}3,3,3,,
{4}2,2,2,,
{1}34,
{4}5,5,5,,
{4}6,6,6,,
{4}7,7,7,,
{1}65,
{4}3,3,3,,
{4}2,2,2,,
{4}1,1,1,,
{1}34,
{4}6,6,6,,
{4}7,7,7,,
{4}8,8,8,,
{1}8-5[2:1],
{1}4h[1:1],
{1}3h[1:1],
{1}2h[1:1],
{1},
{1}5h[1:1],
{1}6h[1:1],
{1}7h[1:1],
{1},
{4}1,1,2,2,
{4}3,3,34,,
{4}8,8,7,7,
{4}6,6,65,,
{4}1,1,2,2,
{4}3,3,34,,
{4}8,8,7,7,
{4}6,6,65,,
{4}4,4,3,3,
{4}2,2,21,,
{4}5,5,6,6,
{4}7,7,78,,
{4}4,4,3,3,
{4}2,2,21,,
{4}5,5,6,6,
{4}7,7,78,,
{1}3h[1:1]/4h[1:1],
{1},
{1}5h[1:1]/6h[1:1],
{1},
{1}2h[1:1]/1h[1:1],
{1},
{1}8h[1:1]/7h[1:1],
{1},
{1}4-1[4:3],
{1},
{1}1-4[4:3],
{1},
{1}5-8[4:3],
{1},
{1}8-5[4:3],
{1},
{1}4h[1:1],
{1}3h[1:1],
{1}2h[1:1],
{1},
{1}5h[1:1],
{1}6h[1:1],
{1}7h[1:1],
{1},
(300){1},
(150)
{1}1h[1:3]/8h[1:3],
{1},
{1},
{1},
{1}3h[1:3]/6h[1:3],
{1},
{1},
{1},
{4}1,1,2,,
{4}2,2,3,,
{4}3,3,4,4,
{1}45,
{4}8,8,7,,
{4}7,7,6,,
{4}6,6,5,5,
{1}54,
{4}4,4,3,,
{4}3,3,2,,
{4}2,2,3,3,
{4}4,4,4,,
{4}5,5,6,,
{4}6,6,7,,
{4}7,7,6,6,
{4}5,5,5,,
{4}4,4,3,3,
{4}2,2,1,,
{4}5,5,6,6,
{4}7,7,8,,
{4}3,3,6,6,
{4}2,2,7,7,
{4}4,4,5,5,
{1}2q5[2:1]*q5[2:1],
{1}8b,
&inote_4=(150){1},
,
{4}3h[8:1],6h[8:1],4h[8:1],8h[8:1],
{4}3h[8:1],6h[8:1],4h[8:1],8h[8:1],
{4}2h[8:1],5h[8:1],3h[8:1],7h[8:1],
{4}2h[8:1],5h[8:1],3h[8:1],7h[8:1],
{4}2h[8:1]/4h[8:1],3h[8:1]/7h[8:1],2h[8:1]/5h[8:1],4h[8:1]/8h[8:1],
{4}2h[8:1]/4h[8:1],3h[8:1]/7h[8:1],2h[8:1]/5h[8:1],4h[8:1]/8h[8:1],
{4}7h[8:1]/5h[8:1],6h[8:1]/2h[8:1],7h[8:1]/4h[8:1],5h[8:1]/1h[8:1],
{6}2h[6:1],3h[6:1],4h[6:1],5h[6:1],6h[6:1],7h[1:1],
{6}8,1,2,3,4,5,
{6}5/6h[6:5],4,3,2,1,8,
{6}8/7h[6:5],1,2,3,4,5,
{6}5/6h[3:1],5,5,56,45,34,
{6}1/2h[6:5],8,7,6,5,4,
{6}4/3h[6:5],5,6,7,8,1,
{6}1/2h[6:5],8,7,6,5,4,
{6}43,54,65,5w1[8:1]/6,,,
{8}3h[8:1],4,3h[8:1],2,3h[8:1],4,3h[8:1],1,
{8}6h[8:1],5,6h[8:1],7,6h[8:1],5,6h[8:1],8,
{8}2h[8:1],3,2h[8:1],8,2h[8:1],3,2h[8:1],7,
{4}7-5[12:1],8-4[8:1],1-3[12:1],,
{8}6h[8:1],5,6h[8:1],7,6h[2:1],5,4,3,
{8}3h[8:1],4,3h[8:1],2,3h[2:1],4,5,6,
{8}7h[8:1],6,7h[8:1],1,7h[2:1],6,8,1,
{8}2,18,7,56,3-8[8:1]/4-7[8:1],,,,
{8}3h[8:1],4,3h[8:1],7,3h[8:1],2,3h[8:1],8,
{8}6h[8:1],5,6h[8:1],2,6h[8:1],7,6h[8:1],1,
{8}3h[8:1],4,3h[8:1],7,3h[8:1],2,3h[8:1],8,
{8}7h[8:1],6h[8:1],5h[8:1],4h[8:1],3h[8:1],2h[8:1],1,8,
{8}6h[8:1],5,6h[8:1],2,6h[8:1],7,6h[8:1],1,
{8}3h[8:1],4,3h[8:1],7,3h[8:1],2,3h[8:1],8,
{8}6h[8:1],5,6h[8:1],2,6h[8:1],7,6h[8:1],1,
{1}2q5[2:1],
{1}7<4[2:1],
{1}2>5[2:1],
{4}5,5,4,4,
{1}3<6[2:1],
{16}3h[1:1],,,,,,,,4,,,5,,,6,,
{16}6h[1:1],,,,,,,,5,,,4,,,3,,
{4}3h[4:1],4,6h[4:1],5,
{8}45,,4,5,3-8[8:1]/6-1[8:1],,,,
{16}34,,,12,,,34,,45,,,56,,,45,,
{16}65,,,87,,,65,,54,,,43,,,54,,
{16}34,,,12,,,34,,45,,,56,,,45,,
{1}6pp6[2:1]/5qq5[2:1],
{16}65,,,87,,,65,,54,,,43,,,54,,
{16}34,,,12,,,34,,45,,,56,,,45,,
{16}65,,,87,,,65,,54,,,43,,,54,,
{1}3qq3[2:1]/4pp4[2:1],
{16}24,,,18,,,27,,37,,,56,,,25,,
{16}75,,,81,,,72,,62,,,43,,,74,,
{16}24,,,18,,,27,,37,,,56,,,25,,
{1}7-3[2:1]*V53[2:1],
{16}75,,,81,,,72,,62,,,43,,,74,,
{16}24,,,18,,,27,,37,,,56,,,25,,
{16}75,,,81,,,72,,62,,,43,,,74,,
{1}2-6[2:1]*V46[2:1],
{8}3h[8:1],4,3h[8:1],2,3h[8:1],4,3h[8:1],1,
{8}6h[8:1],5,6h[8:1],7,6h[8:1],5,6h[8:1],8,
{8}2h[8:1],3,2h[8:1],8,2h[8:1],3,2h[8:1],7,
{4}7-5[12:1],8-4[8:1],1-3[12:1],,
{8}6h[8:1],5,6h[8:1],7,6h[2:1],5,4,3,
{8}3h[8:1],4,3h[8:1],2,3h[2:1],4,5,6,
{8}7h[8:1],6,7h[8:1],1,7h[2:1],6,8,1,
{8}2,18,7,56,3-8[8:1]/4-7[8:1],,,,
{8}3h[8:1],4,3h[8:1],7,3h[8:1],2,3h[8:1],8,
{8}6h[8:1],5,6h[8:1],2,6h[8:1],7,6h[8:1],1,
{8}3h[8:1],4,3h[8:1],7,3h[8:1],2,3h[8:1],8,
{8}7h[8:1],6h[8:1],5h[8:1],4h[8:1],3h[8:1],2h[8:1],1,8,
{8}6h[8:1],5,6h[8:1],2,6h[8:1],7,6h[8:1],1,
{8}3h[8:1],4,3h[8:1],7,3h[8:1],2,3h[8:1],8,
{8}6h[8:1],5,6h[8:1],2,6h[8:1],7,6h[8:1],1,
{1}2q5[2:1],
{1}1h[1:1],
{1}8h[1:1],
{1}7h[1:1],
{1}6h[1:1],
{1}5V31[2:1],
{1}8V64[2:1],
{2}3-6[8:1],7-2[8:1],
{8}3,,45,45,36,,1>4[4:1]/8<5[4:1],,
(300){1},
(150)
{16}2h[16:3],,,1h[16:3],,,3h[8:5],,5,,,4,,,6,,
{16}7h[16:3],,,8h[16:3],,,6h[8:5],,4,,,5,,,3,,
{16}2h[16:3],,,1h[16:3],,,3h[8:5],,5,,,4,,,6,,
{1}5w1[2:1],
{16}7h[16:3],,,8h[16:3],,,6h[8:5],,4,,,5,,,3,,
{16}2h[16:3],,,1h[16:3],,,3h[8:5],,5,,,4,,,6,,
{16}7h[16:3],,,8h[16:3],,,6h[8:5],,4,,,5,,,3,,
{1}4w8[2:1],
{16}3h[16:3],,,4h[16:3],,,2h[8:1],,8,2,,1,,,7,,
{16}6h[16:3],,,5h[16:3],,,7h[8:1],,1,7,,8,,,2,,
{16}3h[16:3],,,4h[16:3],,,2h[8:1],,8,2,,1,,,7,,
{1}8w4[2:1],
{16}6h[16:3],,,5h[16:3],,,7h[8:1],,1,7,,8,,,2,,
{16}3h[16:3],,,4h[16:3],,,2h[8:1],,8,2,,1,,,7,,
{16}6h[16:3],,,5h[16:3],,,7h[8:1],,1,7,,8,,,2,,
{1}1qq5[2:1]*pp5[2:1],
{16}34,,2,1,,3,4,,3h[8:1],,5h[8:1],,4h[8:1],,6,,
{16}65,,7,8,,6,5,,6h[8:1],,4h[8:1],,5h[8:1],,3,,
{16}34,,2,1,,3,4,,3h[8:1],,5h[8:1],,4h[8:1],,6,,
{2}5-1[8:1],5-1[8:1],
{16}65,,7,8,,6,5,,6h[8:1],,4h[8:1],,5h[8:1],,3,,
{16}34,,2,1,,3,4,,3h[8:1],,5h[8:1],,4h[8:1],,6,,
{16}65,,7,8,,6,5,,6h[8:1],,4h[8:1],,5h[8:1],,3,,
{1}4>5[2:1],
{16}21,,3,4,,2,1,,2h[8:1],,8h[8:1],,1h[8:1],,7,,
{16}78,,6,5,,7,8,,7h[8:1],,1h[8:1],,8h[8:1],,2,,
{8}3h[8:1],4h[8:1],5h[8:1],6h[8:1],7h[8:1],8h[8:1],1h[8:1],2h[8:1],
{16}3h[2:1],,,1,,,7,,5w1[8:1],,,,,,,,
{16}24,,,18,,,27,,37,,,56,,,25,,
{16}75,,,81,,,72,,62,,,43,,,74,,
{16}24,,,18,,,27,,75,,,81,,,72,,
{16}2,3,4,5,6,7,8,1,2q5[4:1]*q5[4:1],,,,,,,,
{1}8b,
&inote_5=(150){1},
,
{16}3h[8:1],,4h[4:1],,,,,,5,5,3,,6,6,3,,
{16}6h[8:1],,5h[4:1],,,,6,,4,4,6,,3,3,6,,
{16}3h[8:1],,4h[4:1],,,,,,5,5,3,,6,6,3,,
{16}6h[8:1],,5h[4:1],,,,6,,4,4,6,,3,3,6,,
{8}36,3,34,3,36,3,38,3,
{8}63,6,65,6,63,6,61,6,
{8}36,3,34,3,36,3,38,3,
{6}3/6b,47,58,16,27,38,
(225)
{4}2-4[12:1],1-5[8:1],2-4[12:1],8-4[8:1],1-5[8:1],7,
{4}7-5[12:1],8-4[8:1],7-5[12:1],1-5[8:1],8-4[8:1],2,
{4}2-4[12:1],1-5[8:1],2-4[12:1],8-4[8:1],1-5[8:1],7,
{4}6h[4:3],,,{16}3,4,3,,5,4,5,,3,4,3,,
{4}7-5[12:1],7/8-4[8:1],7-5[12:1]/8,1-5[8:1]/7,1/8-4[8:1],28,
{4}2-4[12:1],2/1-5[8:1],2-4[12:1]/1,8-4[8:1]/2,8/1-5[8:1],71,
{4}7-5[12:1],7/8-4[8:1],7-5[12:1]/8,1-5[8:1]/7,1/8-4[8:1],28,
{16}6,5,6,,4,5,4,,6,5,6,,{4}3h[4:3],,,
(150)
{8}5-8[8:1],4,5,3,1-6[8:1],2,1,3,
{8}4-1[8:1],5,4,6,8-3[8:1],7,8,6,
{16}5-8[8:1],,4,,5,,3,,1-6[8:1],,2,,1,,3,2,
{4}1-5[8:1],1>4[8:1]*<6[8:1],1,37,
{16}4-1[8:1],,5,,4,,6,7,8>3[8:1],,7,,6,,5,,
{16}5-8[8:1],,4,,5,,3,2,1<6[8:1],,2,,3,,4,,
{16}4-1[8:1],,5,,4,,6,7,8>3[8:1],,7,,6,,7,,
{8}8-6[12:1],4-2[12:1],8-4[8:1],4w8[8:1],,,,26,
{8}3-7[8:1],6,3,6,1-5[8:1],6,1,6,
{8}4-8[8:1],5,4,5,8-4[8:1],7,8,7,
{8}5-2[8:1],6,5,6,7-2[8:1],6,7,6,
{8}2h[4:1],4,8h[4:1],6,3h[4:1],5,7h[8:1],5,
{8}6-2[8:1],3,6,3,8-4[8:1],3,8,3,
{8}5-1[8:1],4,5,4,1-5[8:1],2,1,2,
{8}4-7[8:1],3,4,3,2-7[8:1],3,2,3,
{16}2,1,2,8,2v7[8:1],7,2,6,2,,{24}6,5,4,3,,,,,,
{16}2-6[16:1]/6-2[16:1],,,,,,,4,3v8[8:1]/5v8[8:1],,,,35,,,,
{16}7-3[16:1]/3-7[16:1],,,,,,,5,6v1[8:1]/4v1[8:1],,,,64,,,,
{4}5,5,4,4,
{16}3<6[8:1],,,,,,,18,2-5[8:1]/7-4[8:1],,,,27,,,,
{16}1>6[2:1],8,1,,6,,,,7,7,7,,8,,1,,
{16}8<3[2:1],1,8,,3,,,,2,2,2,,1,,8,,
{16}34,,12,,8,7,6,5,34,,2,,18,,7,7,
{32}2,1,8,7,6,5,4,3,6,5,4,3,2,1,8,7,{4}3b-8[8:1]/6-1[8:1],3/6b,
{16}3b/8,,2-5[8:1],1,,1,2,,8-4[8:1],,7,,18,,2,,
{16}61,,7-4[8:1],8,,8,7,,1-5[8:1],,2,,81,,7,,
{16}38,,2-5[8:1],1,,1,2,,8-4[8:1],,7,,18,,2>5[16:1],,
{8}1,2/8<5[16:1],,2>5[16:1]/8,,28,,28,
{16}61,,7-4[8:1],8,,8,7,,1-5[8:1],,2,,81,,7,,
{16}38,,2-5[8:1],1,,1,2,,8-4[8:1],,7,,18,,2,,
{16}61,,7-4[8:1],8,,8,7,,1-5[8:1],,2,,81,,7,,
{16}8,4,7,3,6,2,5,1,6,2,7,3,84,,,,
{16}25,,3-8[8:1],4,,4,3,,5-1[8:1],,6,,45,,3,,
{16}74,,6-1[8:1],5,,5,6,,4-8[8:1],,3,,54,,6,,
{16}25,,3-8[8:1],4,,4,3,,5-1[8:1],,6,,45,,3>8[16:1],,
{8}4,3/5<8[16:1],,3>8[16:1]/5,,35,,35,
{16}74,,6-1[8:1],5,,5,6,,4-8[8:1],,3,,54,,6,,
{16}25,,3-8[8:1],4,,4,3,,5-1[8:1],,6,,45,,3,,
{16}74,,6-1[8:1],5,,5,6,,4-8[8:1],,3,,54,,6,,
{16}5,1,6,2,7,3,8,4,7,3,6,2,51,,,,
{16}4-1[8:1],,5,,4,,7,6,8-3[8:1],,7,,8,,7,6,
{16}5-8[8:1],,4,,5,,2,3,1-6[8:1],,2,,1,,2,3,
{16}4-1[8:1],,5,,4,,7,6,8-3[8:1],,7,,8,,7,6,
{4}8-4[8:1],8<5[8:1],8>3[8:1],8,
{16}5-8[8:1],,4,,5,,3,2,1<6[8:1],,2,,3,,4,4,
{16}4-1[8:1],,5,,4,,6,7,8>3[8:1],,7,,6,,5,5,
{16}5-8[8:1],,4,,5,,3,2,1<6[8:1],,2,,3,,2,,
{8}2-5[8:1],7-4[8:1],2,7,1,72,,54,
{16}6q2[8:1],,3,,6,,3,3,8p4[8:1],,3,,8,,3,3,
{16}5q1[8:1],,4,,5,,4,4,1p5[8:1],,2,,1,,2,2,
{16}4<7[8:1],,3,,4,,3,3,2<7[8:1],,3,,2,,3,3,
{16}7h[4:1],,5,,1h[4:1],,3,,6h[4:1],,4,,2h[8:1],,4,,
{16}3p7[8:1],,6,,3,,6,6,1q5[8:1],,6,,1,,6,6,
{16}4p8[8:1],,5,,4,,5,5,8q4[8:1],,7,,8,,7,7,
{16}5>2[8:1],,6,,5,,6,6,7>2[8:1],,6,,7,,6,6,
{16}7,8,7,1,7v2[8:1],2,7,3,7,,{24}3,4,5,6,,,,,,
{16}5w1[16:1],,,,,,,73,6-1[8:1]/4-1[8:1],,,,64,,,,
{16}4w8[16:1],,,,,,,26,3-8[8:1]/5-8[8:1],,,,35,,,,
{4}4,4,5,5,
{16}6>3[8:1],,,,,,,81,7-4[8:1]/2-5[8:1],,,,72,,,,
{16}8<3[2:1],8,8,,3,,,,2,2,2,,1,,8,,
{16}1>6[2:1],1,1,,6,,,,7,7,7,,8,,1,,
{16}65,,87,,1,2,3,4,65,,7,,81,,2,2,
{16}3,3,4,4,5,5,6,6,7,7,8,8,1,1,2,2,
(300){8}3h[1:1],,,,,,,,
(150)
{1}4bw8[2:1],
{1}5w1[2:1],
{1}4>5[4:3]*<3[2:1],
{1}4h[2:1],
{1}8w4[2:1],
{1}1w5[2:1],
{1}8<1[4:3]*>7[2:1],
{1}8h[2:1],
{16}7/2-5[4:1],,,8,,,7,,6,6,,45,,3,4,,
{16}2/7-4[4:1],,,1,,,2,,3,3,,54,,6,5,,
{16}7/2-5[4:1],,,8,,,7,,6,6,,45,,3,4,,
{4}2q5[2:1]/6h[2:1],,,,
{16}6/3-8[4:1],,,5,,,6,,7,7,,18,,2,3,,
{16}3/6-1[4:1],,,4,,,3,,2,2,,81,,7,6,,
{16}6/3-8[4:1],,,5,,,6,,7,7,,18,,2,3,,
{16}45,,56,,67,,78,,1-5[8:1]/8,,2,,18,,7,7,
{16}8,,3,4,,1,8h[4:1],,7V52[24:5],,5,,37,,1,,
{16}1,,6,5,,8,1h[4:1],,2V47[24:5],,4,,62,,8,,
{16}8,,3,4,,1,8h[4:1],,7V52[24:5],,5,,37,,1>4[16:1],,
{8}8,1/7<4[16:1],8,1>4[16:1]/7,8,17,8,17,
{16}6,,2,1,,4,5h[4:1],,6V83[24:5],,8,,26,,4,,
{16}4,,7,8,,5,4h[4:1],,3V16[24:5],,1,,73,,5,,
{16}5,,2,1,,4,5h[4:1],,6V83[24:5],,8,,26,,4,,
{16}5,,4,,3,7,4,6,2,8,3,7,1h[4:1],,,,
{16}6b,,7,1,6,2,5V71[4:1],,7V15[4:1]/3,,4,,3,,2,,
{16}3,,2,8,3,7,4V28[4:1],,2V84[4:1]/6,,5,,6,,7,,
{8}7-4[8:1],6,7/1-5[8:1],2,8-4[8:1]/1,7,8/2q5[2:1],3,
{16}8,,,7,,,6,,6,,1,8,7,6,5,4,
{16}37,,2,1,3<6[8:1],1,2,,3/8-4[8:1],,7,,18,,3,,
{16}62,,7,8,6>3[8:1],8,7,,6/1-5[8:1],,2,,81,,6,,
{16}3,,2-5[8:1],1,3,1,2,,6,,7-4[8:1],8,6,8,7,,
{32}2,3,4,5,6,7,8,1,2,3,4,5,6,7,8,1,2q5[4:1]*q5[4:1],3,4,5,6,7,8,1,{4}2,
{1}8b,
