&title=みむかゥわナイストライ
&artist=ぬぬぬぬぬぬぬぬぬぬぬぬぬぬぬぬぬぬぬぬ
&first=0.01
&des=どどどどどどどどどどどどどどどどどどどど
&lv_5=13+
&inote_5=(126)
{4},,,,,,,
{8},{32},{8}1xs5[4:3],,,,,,,,,,,{16},{8}4x-1[8:3]*-8[8:3],,,,,
{4},,,,{16},{4}
E7/B7/B5/A7/A6/A5/E5/E6`B6,,,{16},E8/B7/B6/B5/B4/B3/B2/E2,,,
{32},,,,,,,
{4},,,
{8}6h[4:1],,E5,,6h[4:1],,E5,6h[8:3],,,5,{32}6,5,6,5-2[12:1],{4}6-3[12:1],,
{8}2h[4:1],,A3,,2h[4:1],,A3,1b,,7b/6b,7b/2b,2b/3b,8b/1bv4[8:1],2,17,,
5h[4:7]/7v6[8:1],,7<4[8:1],,7,,7v6[8:1],6>4[8:1],,,,7>5[4:1],7,,,,
4h[8:11]/2v3[8:1],,2>5[8:1],,2,,2v3[8:1],3<5[8:1],,,,2,2v7[12:1]*-4[12:1],,A2,,
5h[8:1]/7,8,5h[8:1]/7,1,5h[8:1]/7,8,5h[8:1]/7,1,5<7[12:1]/7<5[12:1],,57,,5v2[12:1]/7<4[12:1],,57,,
4h[8:1]/2,1,4h[8:1]/2,8,4h[8:1]/2,1,4h[8:1]/2,8,4q1[8:1]/2v3[8:1],,42,,
8h[4:1]/2h[4:1],,{64},3/7,4/6,5,,,,,,,,,,,,,
{8}45,3,45,6,45,3,45,6,35,2,46,7,35,2,46,7,25,1,47,8,25,1,47,8,
1-6[8:1],7-4[8:1],8-3[8:1],,,{32}E5,B5,B6,E7,
{8}7x-5[8:1],3-1[8:1],
7-3[8:1],3,7,8<5[8:1],,82,2-8[8:1],5-8[8:1],
2-5[8:1],5,2,1>4[8:1],,18,8-4[8:1],5-2[8:1],
8-6[8:1],5,8,1v2[8:1]*v7[8:1],,,,,
2h[4:2]/7pp7[4:1],,,,C,,
{8}7<5[8:1],3>1[8:1],
7-3[8:1],3,7,8<5[8:1],,82,2<8[8:1],5<8[8:1],
2>5[8:1],5,2,1>4[8:1],,18,8q4[8:1],5>2[8:1],
8<6[8:1],5,8,1v2[8:1]*v6[8:1],,,,,
2-5[8:1]/6-1[8:1],C,,,A2f`E2`B1`B8`E8`A7f,,,,
{16}7h[4:1]/6,,,6,,,6-4[8:1]/7h[4:1],,,,6,,D7/B6/B7,,,,
{16}2h[4:1]/3,,,3,,,3-5[8:1]/2h[4:1],,,,3,,D3/B3/B2,,,,
{16}7h[4:1]/6,,,6,,,6-2[8:1]/7h[4:1],,,,6,,D7/B6/B7,,,,
{8}1>2-6[8:1]/6-3[8:1],16,,,A3/D4/E4/D3/A6/D6/E6/D7,A3/D4/E4/D3/A6/D6/E6/D7,A3/D4/E4/D3/A6/D6/E6/D7,,
{16}3h[4:1]/2,,,2,,,2-8[8:1]/3h[4:1],,,,2,,D3/B2/B3,,,,
{16}6h[4:1]/7,,,7,,,7-1[8:1]/6h[4:1],,,,7,,D7/B7/B6,,,,
{16}3h[4:1]/2,,,2,,,2/3h[4:1],,,,2,,B2/B3/B7/B6,,,,
{8}8>1s5[8:1],5s1<8[8:1],,,3b-6-1-4b[4:1],,,,
{16}8-5[8:1],,,5,8,,4h[4:1],,,,5,,6,,7,,8-5[8:1],,,5,8,,4h[4:1],,,,5h[4:1],,3,,2,,
1-4[8:1],,,4,1,,5h[4:1],,,,4,,3,,2,,1h[16:3],,,8,18,,2xqq8q6[64:16]/7xpp1p4[64:16],,18,,27,,,,,,
{8}4h[4:1],,6-8v1[4:1],,1x>3[8:1],1x<7<5[4:1]*<7-3[4:1],,,,,3xv1[8:1]/4x-8[8:1],,3xqq4[4:1]/4,,3x,,
{32}6xh[4:3],,D5/E5,,,,,,,B8/A8,,,,,,B3/A3,,B2/A2,,B1/A1,,B8/A8,,,,,,C,
{8}8bx,,2b/3b,2b/7b,7b/6b,1b/8bv5[8:1],7,82,,
{16}64,,,6,4qq4[4:1],,6,,6/4-7[8:1],,,,6,,,,68,,,6,8pp8[4:1],,6,,6/8-4[8:1],,,,6,,,,
35,,,3,4pp4[4:1],,3,,3/4-8[8:1],,,,3,,,,31,,,32,,,34,,
{32}3,3,3,3,3,3,3,3,3,3,3,3,3,3,3,3,
{16}3-1[8:1],,,4,3,,8,,7-3[8:1],,8,,7,,4,,6-8[8:1],,,5,6,,1,,2-6[8:1],,1,,2>5b[8:1],,
{8}7v2[8:1],
2<5[4:1],7,5pp8[8:3],,1,1,{16}1,1,1,1,{4}1h[4:2],,8v3b[12:1],
{8}8b-6[8:1],1-5[8:1],
8-3[8:1],1,8,5>2[8:1],,56,6-1[8:1],2-4[8:1],
6-2[8:1],2,6,4<7[8:1],,34,3-6[8:1],8-5[8:1],
3-8[8:1],8,3,4v2b[8:1]*v7b[8:1],,,,,
2h[4:2]/7pp7[4:1],6,7,,C,,
{8}8<6[8:1],1p5[8:1],
8>3[8:1],1,8,5v2[8:1],,56,6<1[8:1],2>4[8:1],
6q2[8:1],2,6,4v7[8:1],,34,3-6[8:1],8-4[8:1],
3>8[8:1],8,3,4v1b[8:1]*v6b[8:1],,,,,
2-5[8:1]/6-1[8:1],C,,,A2f/A3f`E2/E4`B1/B4`B8/B5`E8/E6`A7f/A6f,,,,
{16}7h[8:1]/6,,,6,7h[8:1],,6-4[8:1],,7h[8:1],,6,,D7/B6/B7,,,,
{16}2h[8:1]/3,,,3,2h[8:1],,3-5[8:1],,2h[8:1],,3,,D3/B3/B2,,,,
{16}7h[8:1]/6,,,6,7h[8:1],,6-4[8:1],,7h[8:1],,6,,D7/B6/B7,,,,
{8}1>2-6[8:1]/6-3[8:1],16,,,A3/D4/E4/D3/A6/D6/E6/D7,A3/D4/E4/D3/A6/D6/E6/D7,A3/D4/E4/D3/A6/D6/E6/D7,,
{16}3h[8:1]/2,,,2,3h[8:1],,2-8[8:1],,3h[8:1],,2,,D3/B2/B3,,,,
{16}6h[8:1]/7,,,7,6h[8:1],,7-1[8:1],,6h[8:1],,7,,D7/B7/B6,,,,
{16}3h[8:1]/2,,,2,3h[8:1],,2,,3h[8:1],,2,,1-5[8:1]/8,,1/8-6[8:1],,
{8}1-3[8:1],8-4[8:1],1,8,1,
{32}E5,B5,B6,E7,
{8}7x,,
{8}4-2[8:1]/5,3,4/5-7[8:1],6,3-1[8:1]/5,2,3/4<6[8:1],5,
3>1[8:1]/4,2,3/5<7[8:1],6,4>2[8:1]/5,3,4/6-8[8:1],7,
5-3[8:1]/6,4,5/6-8[8:1],7,6/4-1b[12:1]*-7b[12:1],3,4b,,
{8}8>1s5[8:1],5s1<8[8:1],,,3b-6-1-4b[4:1],,,,
{16}8-5[8:1],,,5,8,,4h[4:1],,,,5,,6,,7,,8-5[8:1],,,5,8,,4h[4:1],,,,5h[4:1],,3,,2,,
1-4[8:1],,,4,1,,5h[4:1],,,,4,,3,,2,,1h[16:3],,,8,18,,2xqq8q6[64:16]/7xpp1p3[64:16],,18,,27,,,,,,
{8}1-4b[8:1]/2-4b[8:1],,12,,8-4b[8:1]/7-4b[8:1],,78,,
{16}3,5,2,8,4,6,3,7,
2,2,8,8,1,,,,
{32}1xb/4,2x,3x,4x,5x,6x,,,1xb/4,2xb,3x,4x,5x,6x,,,1xb/4,2xb,3xb,4bx,5x,6x,,,1xb/4,2xb,3xb,4xb,5bx,6bx,,,
{16}2x/6x,7x/3x,2x/6x,7x/3x,2x/6x,7x/3x,2x/6x,7x/3x,2x/6x,7x/3x,2x/6x,7x/3x,2x/6x,,,,
{1}B3/B4/E3/E5/B2/B5/E6/E2/A1/A6/D2/D6,,,{16},,,2xqq2[8:5]*qq2qq2b[8:10]*qq2qq2qq2[8:15],
{4},,,,,,,,,{16},
3,,4h[8:1],3,,,3,,4,,3,,6-3[8:1],,3-5[8:1],,
{8}6,2,1,26,
{16}37,37,48,48,51,51,
{8}2x/6x,2bxv7[4:4]/6bxv3[4:4],,,,,,,,,,,,,,,,,,,,,,,,,,,,,,,,,,,,,,,,,,,,
E
